↑↓Torrent.by
Поиск
Логин: Регистрация
Пароль: Восстановить пароль
Загрузка...

Стажёр / Il tuttofare (2018) WEB-DLRip-AVC от ExKinoRay | iTunes

Скачать stazher-il-tuttofare-2018-web-dlrip-avc-ot-exkinoray-itunes.torrent
U Магнитная ссылка Размер: 1.58 GB Раздают: 45 Качают: 10 Добавлен: 2019-03-10 04:37:38
Стажёр / Il tuttofare (2018) WEB-DLRip-AVC от ExKinoRay | iTunes

Название: Стажёр
Оригинальное название: Il tuttofare
Год выпуска: 2018
Жанр:  Комедия
Режиссер: Валерио Аттаназио
В ролях: Серджо Кастеллитто, Гульельмо Поджи, Елена София Риччи, Клара Алонсо, Люка Авальяно, Риккардо Камилли, Доменико Чентаморе, Альберто Ди Стасио, Антонио Фулфаро, Роланд Литрико

О фильме: Начинающий юрист Антонио устраивается на стажировку к маститому адвокату, доктору Тоти. Антонио делает всё для него: он и помощник, и носильщик, и водитель, и даже личный повар. Ради карьерных перспектив юноша готов на многое, пока Тоти не просит о ещё одной услуге - жениться на его аргентинской любовнице, чтобы та смогла получить итальянское гражданство... Придётся выбирать - пойти на сделку с совестью или лишиться тёплого местечка в мире больших связей.

Выпущено: Италия, Wildside, Vision Distribution, Sky Cinema
Продолжительность: 01:37:50
Перевод: Профессиональный многоголосый | iTunes

БЕЗ КАКОЙ-ЛИБО РЕКЛАМЫ!

Формат: MKV
Качество: WEB-DLRip-AVC
Видео: MPEG-4 AVC, 1024x428 (2.40:1), 23.976 fps, 1921 Kbps, 0.168 bit/pixel
Аудио : 48 kHz, AC3, 5.1, 384 Kbps RUS |

Релиз:

Автор релиза:


[+] ОтчетМедиаИнфо

General
Unique ID                                : 249748207208262127411677899539686708742 (0xBBE3C14D0CD6BF938158EE825D595606)
Complete name                            : D:Il.tuttofare.2018.WEB-DLRip.AVC.ExKinoRay.mkv
Format                                   : Matroska
Format version                           : Version 2
File size                                : 1.58 GiB
Duration                                 : 1 h 37 min
Overall bit rate                         : 2 306 kb/s
Movie name                               : Стажёр (2018) from ExKinoRay
Encoded date                             : UTC 2019-03-09 03:42:33
Writing application                      : mkvmerge v5.6.0 ('Kenya Kane') built on May 27 2012 16:44:04
Writing library                          : libebml v1.2.3 + libmatroska v1.3.0

Video
ID                                       : 1
Format                                   : AVC
Format/Info                              : Advanced Video Codec
Format profile                           : High@L4.1
Format settings, CABAC                   : Yes
Format settings, ReFrames                : 11 frames
Codec ID                                 : V_MPEG4/ISO/AVC
Duration                                 : 1 h 37 min
Bit rate                                 : 1 921 kb/s
Width                                    : 1 024 pixels
Height                                   : 428 pixels
Display aspect ratio                     : 2.40:1
Frame rate mode                          : Constant
Frame rate                               : 24.000 FPS
Color space                              : YUV
Chroma subsampling                       : 4:2:0
Bit depth                                : 8 bits
Scan type                                : Progressive
Bits/(Pixel*Frame)                       : 0.183
Stream size                              : 1.28 GiB (81%)
Title                                    : Enigma
Writing library                          : x264 core 152 r2851 ba24899
Encoding settings                        : cabac=1 / ref=11 / deblock=1:-3:-2 / analyse=0x3:0x113 / me=umh / subme=10 / psy=1 / psy_rd=1.05:0.08 / mixed_ref=1 / me_range=32 / chroma_me=1 / trellis=2 / 8x8dct=1 / cqm=0 / deadzone=21,11 / fast_pskip=0 / chroma_qp_offset=-3 / threads=12 / lookahead_threads=2 / sliced_threads=0 / nr=0 / decimate=0 / interlaced=0 / bluray_compat=0 / constrained_intra=0 / bframes=9 / b_pyramid=2 / b_adapt=2 / b_bias=0 / direct=3 / weightb=1 / open_gop=0 / weightp=2 / keyint=240 / keyint_min=24 / scenecut=40 / intra_refresh=0 / rc=2pass / mbtree=0 / bitrate=1921 / ratetol=1.0 / qcomp=0.60 / qpmin=0 / qpmax=51 / qpstep=4 / cplxblur=20.0 / qblur=0.5 / ip_ratio=1.40 / pb_ratio=1.30 / aq=1:1.00
Language                                 : English
Default                                  : Yes
Forced                                   : No
Color range                              : Limited
Color primaries                          : BT.709
Transfer characteristics                 : BT.709
Matrix coefficients                      : BT.709

Audio
ID                                       : 2
Format                                   : AC-3
Format/Info                              : Audio Coding 3
Mode extension                           : CM (complete main)
Format settings, Endianness              : Big
Codec ID                                 : A_AC3
Duration                                 : 1 h 37 min
Bit rate mode                            : Constant
Bit rate                                 : 384 kb/s
Channel(s)                               : 6 channels
Channel positions                        : Front: L C R, Side: L R, LFE
Sampling rate                            : 48.0 kHz
Frame rate                               : 31.250 FPS (1536 spf)
Compression mode                         : Lossy
Stream size                              : 269 MiB (17%)
Title                                    : iTunes
Language                                 : Russian
Default                                  : Yes
Forced                                   : No

Text
ID                                       : 3
Format                                   : UTF-8
Codec ID                                 : S_TEXT/UTF8
Codec ID/Info                            : UTF-8 Plain Text
Language                                 : Russian
Default                                  : No
Forced                                   : No

Menu
00:00:00.000                             : en:Глава 1
00:06:34.250                             : en:Глава 2
00:14:21.375                             : en:Глава 3
00:19:51.458                             : en:Глава 4
00:27:13.708                             : en:Глава 5
00:34:14.291                             : en:Глава 6
00:39:49.666                             : en:Глава 7
00:44:17.374                             : en:Глава 8
00:50:23.124                             : en:Глава 9
00:56:17.457                             : en:Глава 10
01:03:08.498                             : en:Глава 11
01:10:27.330                             : en:Глава 12
01:15:35.246                             : en:Глава 13
01:21:35.996                             : en:Глава 14
01:27:25.871                             : en:Глава 15




Скриншоты:
[+] Всего файлов в раздаче - 1:
Il.tuttofare.2018.WEB-DLRip.AVC.ExKinoRay.mkv1.58 GB

Отзывы
Зарегистрируйтесь чтобы добавить комментарий.
Обратная связь
Copyleft ©