↑↓Torrent.by
Поиск
Логин: Регистрация
Пароль: Восстановить пароль
Загрузка...

Недруги / Hostiles (2017) BDRip 720p от k.e.n & MegaPeer | D, A | Лицензия

Скачать nedrugi-hostiles-2017-bdrip-720p-ot-k-e-n-megapeer-d-a-licenziya.torrent
U Магнитная ссылка Размер: 5.75 GB Раздают: 106 Качают: 44 Добавлен: 2019-03-10 12:35:08
Недруги / Hostiles (2017) BDRip 720p от k.e.n & MegaPeer | D, A | Лицензия

Информация о фильме
Название: Недруги
Оригинальное название: Hostiles
Год выпуска: 2017
Жанр: Драма, приключения, вестерн
Режиссер: Скотт Купер
В ролях: Кристиан Бэйл, Розамунд Пайк, Уэс Стьюди, Рори Кокрейн, Джесси Племонс, Джонатан Мэйджерс, Бен Фостер, Адам Бич, К`Орианка Килчер, Тимоти Шаламе, Скотт Шеперд, Ава Купер, Стелла Купер, Дэвид Мидфандер, Стэффорд Дуглас, Стивен Лэнг, Билл Кэмп

О фильме:
Когда на твоих глазах льется кровь, когда ты вынужден убивать, ты превращаешься в зверя... После долгих лет войны он дышал злобой, проклинал краснокожих, в каждом из них он видел врага. На исходе войны капитан Блокер получает приказ доставить на родину в Монтану умирающего вождя по кличке Желтый Ястреб. В цепях и кандалах он ведет семью индейцев через земли, где обитают враждебные племена и скрываются беглые преступники, где за каждым камнем поджидает смертельная опасность. Где-то на пути к отряду Блокера пристает обезумевшая от горя вдова, на глазах которой команчи убили ее детей. Эта встреча меняет всё...

 
Страна: США
Студия: Grisbi Productions, Le, Waypoint Entertainment
Продолжительность: 02:14:18
Перевод: Дублированный, авторский (одноголосый, закадровый)

Файл
Формат: MKV
Качество: BDRip 720p
Видео: AVC, 1280x536 (2.40:1), 23.976 fps, 4 791 Kbps (0.291 bit/pixel)
Аудио #1: AC3, 48 KHz, 6 ch, 448 Kbps (Russian) - дублированный
Аудио #2: AC3, 48 KHz, 6 ch, 448 Kbps (Russian) - авторский Ю.Немахов
Аудио #3: AC3, 48 KHz, 6 ch, 448 Kbps (English) - оригинал
Субтитры: Русские (forced, full), английские (full, SDH)

Релиз:   &


[+] MI
Полное имя                               : D:ФИЛЬМЫНедруги.2017 (К.Бэйл, Р.Пайк).mkv
Формат                                   : Matroska
Версия формата                           : Version 2
Размер файла                             : 5,75 Гбайт
Продолжительность                        : 2 ч. 14 м.
Общий поток                              : 6131 Кбит/сек
Название фильма                          : Hostiles 2017
Дата кодирования                         : UTC 2019-03-09 12:19:39
Программа кодирования                    : mkvmerge v5.3.0 ('I could have danced') built on Feb  9 2012 10:38:07
Библиотека кодирования                   : libebml v1.2.3 + libmatroska v1.3.0
Attachments                              : poster.jpg

Видео
Идентификатор                            : 1
Формат                                   : AVC
Формат/Информация                        : Advanced Video Codec
Профиль формата                          : High@L4.1
Параметр CABAC формата                   : Да
Параметр ReFrames формата                : 12 кадров
Идентификатор кодека                     : V_MPEG4/ISO/AVC
Продолжительность                        : 2 ч. 14 м.
Битрейт                                  : 4791 Кбит/сек
Ширина                                   : 1280 пикселей
Высота                                   : 536 пикселей
Соотношение сторон                       : 2,40:1
Режим частоты кадров                     : Постоянный
Частота кадров                           : 23,976 (24000/1001) кадра/сек
Цветовое пространство                    : YUV
Субдискретизация насыщенности            : 4:2:0
Битовая глубина                          : 8 бит
Тип развёртки                            : Прогрессивная
Бит/(Пиксели*Кадры)                      : 0.291
Размер потока                            : 4,38 Гбайт (76%)
Библиотека кодирования                   : x264 core 146 r2538 121396c
Настройки программы                      : cabac=1 / ref=12 / deblock=1:-3:-3 / analyse=0x3:0x133 / me=umh / subme=11 / psy=1 / psy_rd=1.00:0.10 / mixed_ref=1 / me_range=32 / chroma_me=1 / trellis=2 / 8x8dct=1 / cqm=0 / deadzone=21,11 / fast_pskip=0 / chroma_qp_offset=-3 / threads=12 / lookahead_threads=3 / sliced_threads=0 / nr=0 / decimate=0 / interlaced=0 / bluray_compat=0 / constrained_intra=0 / bframes=12 / b_pyramid=2 / b_adapt=2 / b_bias=0 / direct=3 / weightb=1 / open_gop=0 / weightp=2 / keyint=240 / keyint_min=23 / scenecut=40 / intra_refresh=0 / rc=2pass / mbtree=0 / bitrate=4791 / ratetol=1.0 / qcomp=0.60 / qpmin=0 / qpmax=69 / qpstep=4 / cplxblur=20.0 / qblur=0.5 / ip_ratio=1.40 / pb_ratio=1.30 / aq=3:0.90
Язык                                     : English
Default                                  : Да
Forced                                   : Нет

Аудио #1
Идентификатор                            : 2
Формат                                   : AC-3
Формат/Информация                        : Audio Coding 3
Расширение режима                        : CM (complete main)
Параметр Endianness формата              : Big
Идентификатор кодека                     : A_AC3
Продолжительность                        : 2 ч. 14 м.
Вид битрейта                             : Постоянный
Битрейт                                  : 448 Кбит/сек
Каналы                                   : 6 каналов
Расположение каналов                     : Front: L C R, Side: L R, LFE
Частота                                  : 48,0 КГц
Частота кадров                           : 31,250 кадров/сек (1536 spf)
Битовая глубина                          : 16 бит
Метод сжатия                             : С потерями
Размер потока                            : 430 Мбайт (7%)
Заголовок                                : Дублированный
Язык                                     : Russian
Default                                  : Да
Forced                                   : Да

Аудио #2
Идентификатор                            : 3
Формат                                   : AC-3
Формат/Информация                        : Audio Coding 3
Расширение режима                        : CM (complete main)
Параметр Endianness формата              : Big
Идентификатор кодека                     : A_AC3
Продолжительность                        : 2 ч. 14 м.
Вид битрейта                             : Постоянный
Битрейт                                  : 448 Кбит/сек
Каналы                                   : 6 каналов
Расположение каналов                     : Front: L C R, Side: L R, LFE
Частота                                  : 48,0 КГц
Частота кадров                           : 31,250 кадров/сек (1536 spf)
Битовая глубина                          : 16 бит
Метод сжатия                             : С потерями
Размер потока                            : 430 Мбайт (7%)
Заголовок                                : Авторский Ю.Немахов
Язык                                     : Russian
Default                                  : Нет
Forced                                   : Нет

Аудио #3
Идентификатор                            : 4
Формат                                   : AC-3
Формат/Информация                        : Audio Coding 3
Расширение режима                        : CM (complete main)
Параметр Endianness формата              : Big
Идентификатор кодека                     : A_AC3
Продолжительность                        : 2 ч. 14 м.
Вид битрейта                             : Постоянный
Битрейт                                  : 448 Кбит/сек
Каналы                                   : 6 каналов
Расположение каналов                     : Front: L C R, Side: L R, LFE
Частота                                  : 48,0 КГц
Частота кадров                           : 31,250 кадров/сек (1536 spf)
Битовая глубина                          : 16 бит
Метод сжатия                             : С потерями
Размер потока                            : 430 Мбайт (7%)
Заголовок                                : Оригинал
Язык                                     : English
Default                                  : Нет
Forced                                   : Нет

Текст #1
Идентификатор                            : 5
Формат                                   : UTF-8
Идентификатор кодека                     : S_TEXT/UTF8
Идентификатор кодека/Информация          : UTF-8 Plain Text
Заголовок                                : forced
Язык                                     : Russian
Default                                  : Да
Forced                                   : Да

Текст #2
Идентификатор                            : 6
Формат                                   : UTF-8
Идентификатор кодека                     : S_TEXT/UTF8
Идентификатор кодека/Информация          : UTF-8 Plain Text
Заголовок                                : full 1
Язык                                     : Russian
Default                                  : Нет
Forced                                   : Нет

Текст #3
Идентификатор                            : 7
Формат                                   : UTF-8
Идентификатор кодека                     : S_TEXT/UTF8
Идентификатор кодека/Информация          : UTF-8 Plain Text
Заголовок                                : full 2
Язык                                     : Russian
Default                                  : Нет
Forced                                   : Нет

Текст #4
Идентификатор                            : 8
Формат                                   : UTF-8
Идентификатор кодека                     : S_TEXT/UTF8
Идентификатор кодека/Информация          : UTF-8 Plain Text
Заголовок                                : full
Язык                                     : English
Default                                  : Нет
Forced                                   : Нет

Текст #5
Идентификатор                            : 9
Формат                                   : UTF-8
Идентификатор кодека                     : S_TEXT/UTF8
Идентификатор кодека/Информация          : UTF-8 Plain Text
Заголовок                                : SDH
Язык                                     : English
Default                                  : Нет
Forced                                   : Нет

Меню
00:00:00.000                             : en:00:00:00.000
00:08:18.540                             : en:00:08:18.540
00:20:32.064                             : en:00:20:32.064
00:25:28.819                             : en:00:25:28.819
00:34:48.336                             : en:00:34:48.336
00:40:23.546                             : en:00:40:23.546
00:51:40.597                             : en:00:51:40.597
01:00:18.615                             : en:01:00:18.615
01:08:17.176                             : en:01:08:17.176
01:14:52.071                             : en:01:14:52.071
01:25:29.249                             : en:01:25:29.249
01:34:35.461                             : en:01:34:35.461
01:43:05.513                             : en:01:43:05.513
01:50:45.973                             : en:01:50:45.973
01:54:10.677                             : en:01:54:10.677
02:05:21.806                             : en:02:05:21.806



Скриншоты:
[+] Всего файлов в раздаче - 1:
Недруги.2017 (К.Бэйл, Р.Пайк).mkv5.75 GB

Показать еще раздачи по запросу недруги:
2019-03-10 U Недруги / Hostiles (2017) BDRip от MegaPeer | Rus Transfer | Лицензия 2.18 GB ↑ 106 ↓ 17
2019-03-09 U Недруги / Hostiles (2017) BDRip-AVC от OlLanDGroup | Лицензия 2.36 GB ↑ 154 ↓ 36
2019-03-09 U Недруги / Hostiles (2017) BDRip от MegaPeer | Rus Transfer | Лицензия 1.46 GB ↑ 197 ↓ 98
2019-03-09 U Недруги / Hostiles (2017) BDRip 720p от селезень | Лицензия 7.77 GB ↑ 295 ↓ 134
2019-03-09 U Недруги / Hostiles (2017) BDRip 1080p от селезень | Лицензия 13.36 GB ↑ 386 ↓ 229
2019-03-09 U Недруги / Hostiles (2017) BDRip от MegaPeer | Лицензия 1.46 GB ↑ 43 ↓ 19
2018-04-21 U Недруги / Hostiles (2017) HDRip от Scarabey | iTunes 796.19 MB ↑ 105 ↓ 20

Отзывы
Зарегистрируйтесь чтобы добавить комментарий.
Обратная связь
Copyleft ©