↑↓Torrent.by
Поиск
Логин: Регистрация
Пароль: Восстановить пароль
Загрузка...

Хроники хищных городов / Mortal Engines (2018) BDRip-HEVC 1080p от HANNIBAL | iTunes

Скачать hroniki-hischnyh-gorodov-mortal-engines-2018-bdrip-hevc-1080p-ot-hannibal-itunes.torrent
U Магнитная ссылка Размер: 4.68 GB Раздают: 94 Качают: 49 Добавлен: 2019-03-10 12:35:24
Хроники хищных городов / Mortal Engines (2018) BDRip-HEVC 1080p от HANNIBAL | iTunes

Название: Хроники хищных городов
Оригинальное название: Mortal Engines
Год выхода: 2018
Жанр: Фантастика, фэнтези, боевик, триллер, приключения
Режиссер: Кристиан Риверс
В ролях: Гера Хилмарсдоттир, Роберт Шиэн, Хьюго Уивинг, Джихе, Ронан Рафтери, Лейла Джордж, Патрик Мэлахайд, Стивен Лэнг, Колин Сэлмон, Марк Митчинсон, Меник Гунератне, Реге Пейдж, Фрэнки Адамс, Лейфур Сигурдарсон, Кан Уэст, Эндрю Лииз, Ки Чан, Сара Пирс, Марк Хэдлоу, Карен Писториус, Поппи Маклеод, Джоэл Тобек, Йосон Ан

О фильме:
Прошли тысячелетия после того, как мир настиг апокалипсис. Человечество адаптировалось и теперь живет по новым правилам. Гигантские движущиеся мегаполисы рассекают пустоши и поглощают маленькие города ради ресурсов. Том Нэтсуорти из нижнего уровня великого Лондона оказывается в смертельной опасности, когда на его пути появляется скрывающаяся от закона бунтарка Эстер Шоу. Они не должны были встретиться, но им суждено изменить будущее.

Страна: Новая Зеландия, США
Студия: Media Rights Capital (MRC), Scholastic Productions, Silvertongue Films
Продолжительность: 02:08:21
Перевод: Дублированный (iTunes)

Файл
Качество: BDRip-HEVC 1080p
Видео: HEVC/x.265, 1920x804, ~4390 Kbps
Звук 1: AC3, 6 ch, 384 Kbps  Дублированный (iTunes)
Звук 2: AC3, 6 ch, 448 Kbps  (Оригинал)
Субтитры: Русские(Forced), Английские

Релиз:
[+] Mediainfo

General
Unique ID                   : 168204644671706490654173107579774724632 (0x7E8B0944212E899E202D12DA121E6A18)
Complete name               : E:Mortal Engines (2018) BDRip 1080p [HEVC] 10bit.mkv
Format                      : Matroska
Format version              : Version 4
File size                   : 4.68 GiB
Duration                    : 2 h 8 min
Overall bit rate            : 5 224 kb/s
Movie name                  : Хроники хищных городов
Encoded date                : UTC 2019-03-09 14:36:15
Writing application         : mkvmerge v25.0.0 ('Prog Noir') 64-bit
Writing library             : libebml v1.3.6 + libmatroska v1.4.9 / Lavf57.71.100
Attachments                 : poster.jpg
ACTORS                      : Хера Хильмар, Роберт Шиэн,
COUNTRY                     : Новая Зеландия
DATE                        : 2018
DIRECTOR                    : Кристиан Риверс
ENCODING_INFO               : MPEGTS > MKV / H264 > X265 CRF 17.0 Medium
GENRE                       : фантастика, фэнтези, боевик
HD_VIDEO                    : 1
Language                    : und
MEDIA_TYPE                  : 9
ORIGINAL_TITLE              : Mortal Engines

Video
ID                          : 1
Format                      : HEVC
Format/Info                 : High Efficiency Video Coding
Format profile              : Main 10@L4.1@High
Codec ID                    : V_MPEGH/ISO/HEVC
Duration                    : 2 h 8 min
Bit rate                    : 4 390 kb/s
Width                       : 1 920 pixels
Height                      : 804 pixels
Display aspect ratio        : 2.40:1
Frame rate mode             : Constant
Frame rate                  : 23.976 (24000/1001) FPS
Color space                 : YUV
Chroma subsampling          : 4:2:0
Bit depth                   : 10 bits
Bits/(Pixel*Frame)          : 0.119
Stream size                 : 3.94 GiB (84%)
Writing library             : x265 2.9+9-f74003e88622:[Windows][GCC 8.2.0][64 bit] 10bit
Encoding settings           : cpuid=1111039 / frame-threads=13 / numa-pools=12 / wpp / no-pmode / no-pme / no-psnr / no-ssim / log-level=3 / input-csp=1 / input-res=1920x804 / interlace=0 / total-frames=0 / level-idc=41 / high-tier=1 / uhd-bd=0 / ref=3 / allow-non-conformance / no-repeat-headers / annexb / no-aud / no-hrd / info / hash=0 / no-temporal-layers / open-gop / min-keyint=24 / keyint=240 / gop-lookahead=0 / bframes=4 / b-adapt=2 / b-pyramid / bframe-bias=0 / rc-lookahead=20 / lookahead-slices=4 / scenecut=40 / radl=0 / no-intra-refresh / ctu=64 / min-cu-size=8 / rect / no-amp / max-tu-size=32 / tu-inter-depth=3 / tu-intra-depth=3 / limit-tu=0 / rdoq-level=2 / dynamic-rd=0.00 / no-ssim-rd / signhide / no-tskip / nr-intra=0 / nr-inter=0 / no-constrained-intra / no-strong-intra-smoothing / max-merge=3 / limit-refs=3 / no-limit-modes / me=3 / subme=7 / merange=57 / temporal-mvp / weightp / no-weightb / no-analyze-src-pics / deblock=-3:-3 / no-sao / no-sao-non-deblock / rd=6 / no-early-skip / rskip / no-fast-intra / no-tskip-fast / no-cu-lossless / no-b-intra / no-splitrd-skip / rdpenalty=0 / psy-rd=2.00 / psy-rdoq=0.00 / no-rd-refine / no-lossless / cbqpoffs=0 / crqpoffs=0 / rc=crf / crf=17.0 / qcomp=0.70 / qpstep=4 / stats-write=0 / stats-read=0 / vbv-maxrate=50000 / vbv-bufsize=50000 / vbv-init=0.9 / crf-max=0.0 / crf-min=0.0 / ipratio=1.40 / pbratio=1.30 / aq-mode=1 / aq-strength=1.00 / cutree / zone-count=0 / no-strict-cbr / qg-size=32 / no-rc-grain / qpmax=69 / qpmin=0 / no-const-vbv / sar=1 / overscan=0 / videoformat=5 / range=0 / colorprim=1 / transfer=4 / colormatrix=1 / chromaloc=0 / display-window=0 / max-cll=0,0 / min-luma=0 / max-luma=1023 / log2-max-poc-lsb=8 / vui-timing-info / vui-hrd-info / slices=1 / no-opt-qp-pps / no-opt-ref-list-length-pps / no-multi-pass-opt-rps / scenecut-bias=0.05 / no-opt-cu-delta-qp / aq-motion / no-hdr / no-hdr-opt / no-dhdr10-opt / no-idr-recovery-sei / analysis-reuse-level=5 / scale-factor=0 / refine-intra=0 / refine-inter=0 / refine-mv=0 / no-limit-sao / ctu-info=0 / no-lowpass-dct / refine-mv-type=0 / copy-pic=1 / max-ausize-factor=1.0 / no-dynamic-refine / no-single-sei
Default                     : Yes
Forced                      : No
Color range                 : Limited
Color primaries             : BT.709
Transfer characteristics    : BT.470 System M
Matrix coefficients         : BT.709

Audio #1
ID                          : 2
Format                      : AC-3
Format/Info                 : Audio Coding 3
Commercial name             : Dolby Digital
Codec ID                    : A_AC3
Duration                    : 2 h 8 min
Bit rate mode               : Constant
Bit rate                    : 384 kb/s
Channel(s)                  : 6 channels
Channel layout              : L R C LFE Ls Rs
Sampling rate               : 48.0 kHz
Frame rate                  : 31.250 FPS (1536 SPF)
Bit depth                   : 16 bits
Compression mode            : Lossy
Stream size                 : 352 MiB (7%)
Title                       : iTunes
Language                    : Russian
Service kind                : Complete Main
Default                     : Yes
Forced                      : Yes

Audio #2
ID                          : 3
Format                      : AC-3
Format/Info                 : Audio Coding 3
Commercial name             : Dolby Digital
Codec ID                    : A_AC3
Duration                    : 2 h 8 min
Bit rate mode               : Constant
Bit rate                    : 448 kb/s
Channel(s)                  : 6 channels
Channel layout              : L R C LFE Ls Rs
Sampling rate               : 48.0 kHz
Frame rate                  : 31.250 FPS (1536 SPF)
Bit depth                   : 16 bits
Compression mode            : Lossy
Stream size                 : 411 MiB (9%)
Title                       : Original
Language                    : English
Service kind                : Complete Main
Default                     : No
Forced                      : No

Text #1
ID                          : 4
Format                      : UTF-8
Codec ID                    : S_TEXT/UTF8
Codec ID/Info               : UTF-8 Plain Text
Duration                    : 1 h 43 min
Bit rate                    : 1 b/s
Count of elements           : 19
Stream size                 : 852 Bytes (0%)
Title                       : Forced
Language                    : Russian
Default                     : Yes
Forced                      : Yes

Text #2
ID                          : 5
Format                      : UTF-8
Codec ID                    : S_TEXT/UTF8
Codec ID/Info               : UTF-8 Plain Text
Duration                    : 1 h 57 min
Bit rate                    : 74 b/s
Count of elements           : 1332
Stream size                 : 63.8 KiB (0%)
Title                       : Full
Language                    : Russian
Default                     : No
Forced                      : No

Text #3
ID                          : 6
Format                      : UTF-8
Codec ID                    : S_TEXT/UTF8
Codec ID/Info               : UTF-8 Plain Text
Duration                    : 1 h 57 min
Bit rate                    : 38 b/s
Count of elements           : 1074
Stream size                 : 33.0 KiB (0%)
Title                       : Full
Language                    : English
Default                     : No
Forced                      : No

Menu
00:00:00.000                : :Глава 1
00:07:04.090                : :Глава 2
00:15:36.018                : :Глава 3
00:25:35.033                : :Глава 4
00:35:05.019                : :Глава 5
00:44:49.395                : :Глава 6
00:53:05.891                : :Глава 7
01:02:21.070                : :Глава 8
01:12:05.696                : :Глава 9
01:21:21.543                : :Глава 10
01:30:51.529                : :Глава 11
01:40:35.279                : :Глава 12
01:51:03.948                : :Глава 13
02:00:19.754                : :Глава 14




Скриншоты:
[+] Всего файлов в раздаче - 1:
Mortal Engines (2018) BDRip 1080p [HEVC] 10bit.mkv4.68 GB

Показать еще раздачи по запросу хроники:
2019-03-11 U Хроники хищных городов / Mortal Engines (2018) UHD BDRemux 2160p от селезень | 4K | HDR | D, P | iTunes 60.82 GB ↑ 41 ↓ 67
2019-03-08 U Хроники хищных городов / Mortal Engines (2018) BDRip от MegaPeer | iTunes 2.13 GB ↑ 36 ↓ 14
2019-03-08 U Хроники хищных городов / Mortal Engines (2018) BDRip-AVC от HELLYWOOD | iTunes 2.85 GB ↑ 40 ↓ 21
2019-03-07 U Хроники хищных городов / Mortal Engines (2018) BDRip от MegaPeer | iTunes 1.46 GB ↑ 100 ↓ 34
2019-03-07 U Хроники хищных городов / Mortal Engines (2018) BDRemux 1080p от селезень | iTunes 31.66 GB ↑ 117 ↓ 155
2019-03-07 U Хроники хищных городов / Mortal Engines (2018) HDRip от Scarabey | iTunes 2.12 GB ↑ 35 ↓ 12
2019-03-06 U Хроники хищных городов / Mortal Engines (2018) HDRip от Scarabey | iTunes 1.45 GB ↑ 73 ↓ 17

Отзывы
Зарегистрируйтесь чтобы добавить комментарий.
Обратная связь
Copyleft ©