↑↓Torrent.by
Поиск
Логин: Регистрация
Пароль: Восстановить пароль
Загрузка...

Гоголь. Страшная месть (2018) BDRip | Лицензия

Скачать gogol-strashnaya-mest-2018-bdrip-licenziya.torrent
U Магнитная ссылка Размер: 1.45 GB Раздают: 238 Качают: 80 Добавлен: 2019-03-10 19:29:03
Гоголь. Страшная месть (2018) BDRip | Лицензия

Название: Гоголь. Страшная месть
Год выхода: 2018
Жанр: Детектив, приключения, триллер
Страна: Россия
Перевод: Оригинальный русский язык | Лицензия BD RUS
Продолжительность: 01:46:40
Режиссер: Егор Баранов
В ролях: Александр Петров, Олег Меньшиков, Евгений Стычкин, Артем Сучков, Таисия Вилкова, Юлия Франц, Ян Цапник, Евгений Сытый, Сергей Бадюк, Артем Ткаченко и др.

О фильме: Две сотни лет назад малороссийские хутора разоряла шайка нехристей-ляхов во главе с могущественным колдуном. С тех пор рыщет в окрестностях Диканьки неизвестный Чёрный Всадник, ловит молодых девушек и жестоко расправляется с ними, будто мстит за что. И следующей его жертвой может стать Лиза. Чтобы спасти возлюбленную, писарь Николай Гоголь должен разбить злые чары и победить древнее проклятье. Ни одному из смертных ещё не удавалось это, но к счастью, на помощь Гоголю приходит гениальный столичный сыщик Яков Гуро, и у него уже есть главный подозреваемый…

Файл
Формат: AVI
Качество: BDRip | BD RUS
Видео: Xvid 73, 720x304, ~1481 kbps, 24,000 fps
Звук: русский, AC3, 5.1 ch, 48 kHz, 16 bit, 448 kbps
Субтитры: нет

Релиз:


[+] MI
Общее
Полное имя                               : E:TorrentGogolStrashnayaMestBDRip.avi
Формат                                   : AVI
Формат/Информация                        : Audio Video Interleave
Профиль формата                          : OpenDML
Размер файла                             : 1,45 Гбайт
Продолжительность                        : 1 ч. 46 м.
Общий поток                              : 1941 Кбит/сек
Программа кодирования                    : XviD4PSP 6.0 / 54.27.101

Видео
Идентификатор                            : 0
Формат                                   : MPEG-4 Visual
Профиль формата                          : Advanced Simple@L5
Настройки формата                        : BVOP2 / Custom Matrix
Параметр BVOP формата                    : 2
Параметр QPel формата                    : Нет
Параметр GMC формата                     : Без точки перехода
Параметр матрицы формата                 : Выборочная
Идентификатор кодека                     : XVID
Идентификатор кодека/Подсказка           : XviD
Продолжительность                        : 1 ч. 46 м.
Битрейт                                  : 1481 Кбит/сек
Ширина                                   : 720 пикселей
Высота                                   : 304 пикселя
Соотношение сторон                       : 2,35:1
Частота кадров                           : 24,000 кадра/сек
Цветовое пространство                    : YUV
Субдискретизация насыщенности            : 4:2:0
Битовая глубина                          : 8 бит
Тип развёртки                            : Прогрессивная
Метод сжатия                             : С потерями
Бит/(Пиксели*Кадры)                      : 0.282
Размер потока                            : 1,10 Гбайт (76%)
Библиотека кодирования                   : XviD 73

Аудио
Идентификатор                            : 1
Формат                                   : AC-3
Формат/Информация                        : Audio Coding 3
Идентификатор кодека                     : 2000
Продолжительность                        : 1 ч. 46 м.
Вид битрейта                             : Постоянный
Битрейт                                  : 448 Кбит/сек
Каналы                                   : 6 каналов
Расположение каналов                     : Front: L C R, Side: L R, LFE
Частота                                  : 48,0 КГц
Частота кадров                           : 31,250 кадров/сек (1536 SPF)
Битовая глубина                          : 16 бит
Метод сжатия                             : С потерями
Размер потока                            : 342 Мбайт (23%)
Выравнивание                             : Соединение по промежуткам
Продолжительность промежутка             : 32  мс. (0,77 видеокадр)




Скриншоты:
[+] Всего файлов в раздаче - 1:
GogolStrashnayaMestBDRip.avi1.45 GB

Показать еще раздачи по запросу гоголь:
2019-03-13 U Гоголь. Страшная месть (2018) BDRip от MegaPeer | Лицензия 1.46 GB ↑ 977 ↓ 2
2019-03-11 U Гоголь. Страшная месть (2018) BDRip 720p | Лицензия 4.17 GB ↑ 49 ↓ 22
2019-03-10 U Гоголь. Страшная месть (2018) BDRip 1080p | Лицензия 7.38 GB ↑ 160 ↓ 123
2019-02-21 U Гоголь. Страшная месть (2018) DVDRip от Tapochek | Лицензия 2К1.47 GB ↑ 118 ↓ 60
2018-10-11 U Гоголь. Страшная месть (2018) WEB-DLRip от Generalfilm | КПК | iTunes 405.37 MB ↑ 155 ↓ 14
2018-10-11 U Гоголь. Страшная месть (2018) WEB-DLRip от ExKinoRay | iTunes 746.04 MB ↑ 109 ↓ 19
2018-10-11 U Гоголь. Страшная месть (2018) WEB-DLRip от Scarabey | iTunes 1К1.44 GB ↑ 407 ↓ 85

Отзывы
Зарегистрируйтесь чтобы добавить комментарий.
Обратная связь
Copyleft ©