↑↓Torrent.by
Поиск
Логин: Регистрация
Пароль: Восстановить пароль
Загрузка...

Клара / Clara (2018) WEB-DL 1080p от OlLanDGroup | HDRezka Studio

Скачать klara-clara-2018-web-dl-1080p-ot-ollandgroup-hdrezka-studio.torrent
U Магнитная ссылка Размер: 3.80 GB Раздают: 162 Качают: 91 Добавлен: 2019-03-10 19:29:20
Клара / Clara (2018) WEB-DL 1080p от OlLanDGroup | HDRezka Studio

Клара / Clara
«Never Stop Looking»

Год выпуска: 2018
Страна: США, Канада
Производство: Serendipity Point Films
Жанр:  Фантастика

Режиссёр: Акаш Шерман
В ролях: Р.Х. Томсон, Дженнифер Дэйл, Эннис Эсмер, Патрик Дж. Адамс, Кристен Хагер, Дуайт Айрлэнд, Тамара Сазерленд

Перевод: Профессиональный многоголосый | [HDRezka Studio]
Субтитры: Английские (полные)
Реклама: Отсутствует

Описание: Исаака Бруно, профессора астрономии, увольняют с работы за использование университетского оборудования в личных целях. Тем не менее Исаак продолжает свои исследования — поиск обитаемых планет за пределами Солнечной системы. Вскоре к нему присоединяется Клара, новый научный сотрудник, чей духовный взгляд на жизнь контрастирует с явно рациональными научными взглядами Исаака.

Качество: WEB-DL 1080p | iTunes Version |
Продолжительность: 01:45:08

Формат: MKV
Видео кодек: MPEG-4 AVC
Аудио кодек: AC3
Видео: 1920x792 (1.85:1), 23,976 fps, x264 ~4 590 kbps avg, 0.126 bit/pixel
Аудио #1: 48 kHz, AC3 Dolby Digital, 2 (L,R) ch, ~192.00 kbps avg | RUS (HDRezka Studio)
Аудио #2: 48 kHz, AC3 Dolby Digital, 3/2 (L,C,R,l,r) + LFE ch, ~384.00 kbps avg | ENG

Дата премьеры (мир): 10 сентября 2018
Дата премьеры (РФ):
Цифровой релиз:

Релиз:


[+] MediaInfo

Общее
Уникальный идентификатор                 : 77389068199633806214506316198378805099 (0x3A3897A64E89205ED9E26A35A6BD176B)
Полное имя                               : F:OlLanDGroupClara.2018.WEB-DL(1080p).OlLanDGroup.mkv
Формат                                   : Matroska
Версия формата                           : Version 4 / Version 2
Размер файла                             : 3,80 Гбайт
Продолжительность                        : 1 ч. 45 м.
Общий поток                              : 5169 Кбит/сек
Название фильма                          : Clara.2018   #TorpedoUK#
Дата кодирования                         : UTC 2019-03-10 11:47:28
Программа кодирования                    : mkvmerge v29.0.0 ('Like It Or Not') 64-bit
Библиотека кодирования                   : libebml v1.3.6 + libmatroska v1.4.9

Видео
Идентификатор                            : 1
Формат                                   : AVC
Формат/Информация                        : Advanced Video Codec
Профиль формата                          : High@L4
Параметр CABAC формата                   : Да
Параметр ReFrames формата                : 5 кадров
Идентификатор кодека                     : V_MPEG4/ISO/AVC
Продолжительность                        : 1 ч. 45 м.
Битрейт                                  : 4590 Кбит/сек
Ширина                                   : 1920 пикселей
Высота                                   : 792 пикселя
Соотношение сторон                       : 2,40:1
Режим частоты кадров                     : Постоянный
Частота кадров                           : 23,976 кадра/сек
Цветовое пространство                    : YUV
Субдискретизация насыщенности            : 4:2:0
Битовая глубина                          : 8 бит
Тип развёртки                            : Прогрессивная
Бит/(Пиксели*Кадры)                      : 0.126
Размер потока                            : 3,37 Гбайт (89%)
Заголовок                                : Clara.2018.1080p.WEB-DL.DD5.1.H264-FGT
Язык                                     : English
Default                                  : Да
Forced                                   : Нет
Цветовой диапазон                        : Limited
Основные цвета                           : BT.709
Характеристики трансфера                 : BT.709
Коэффициенты матрицы                     : BT.709

Аудио #1
Идентификатор                            : 2
Формат                                   : AC-3
Формат/Информация                        : Audio Coding 3
Расширение режима                        : CM (complete main)
Параметр Endianness формата              : Big
Идентификатор кодека                     : A_AC3
Продолжительность                        : 1 ч. 45 м.
Вид битрейта                             : Постоянный
Битрейт                                  : 192 Кбит/сек
Каналы                                   : 2 канала
Расположение каналов                     : Front: L R
Частота                                  : 48,0 КГц
Частота кадров                           : 31,250 кадров/сек (1536 spf)
Битовая глубина                          : 16 бит
Метод сжатия                             : С потерями
Задержка видео                           : -42 мс.
Размер потока                            : 144 Мбайт (4%)
Заголовок                                : MVO [HDRezka Studio]
Язык                                     : Russian
Default                                  : Да
Forced                                   : Нет

Аудио #2
Идентификатор                            : 3
Формат                                   : AC-3
Формат/Информация                        : Audio Coding 3
Расширение режима                        : CM (complete main)
Параметр Endianness формата              : Big
Идентификатор кодека                     : A_AC3
Продолжительность                        : 1 ч. 45 м.
Вид битрейта                             : Постоянный
Битрейт                                  : 384 Кбит/сек
Каналы                                   : 6 каналов
Расположение каналов                     : Front: L C R, Side: L R, LFE
Частота                                  : 48,0 КГц
Частота кадров                           : 31,250 кадров/сек (1536 spf)
Битовая глубина                          : 16 бит
Метод сжатия                             : С потерями
Задержка видео                           : -42 мс.
Размер потока                            : 289 Мбайт (7%)
Заголовок                                : [Original]
Язык                                     : English
Default                                  : Нет
Forced                                   : Нет

Текст
Идентификатор                            : 4
Формат                                   : UTF-8
Идентификатор кодека                     : S_TEXT/UTF8
Идентификатор кодека/Информация          : UTF-8 Plain Text
Продолжительность                        : 1 ч. 40 м.
Битрейт                                  : 59 бит/сек
Count of elements                        : 1337
Размер потока                            : 44,0 Кбайт (0%)
Заголовок                                : Full
Язык                                     : English
Default                                  : Нет
Forced                                   : Нет

Меню
00:00:00.000                             : en:1
00:06:57.000                             : en:2
00:13:46.000                             : en:3
00:20:32.000                             : en:4
00:27:37.000                             : en:5
00:33:59.000                             : en:6
00:39:34.000                             : en:7
00:46:28.000                             : en:8
00:53:10.000                             : en:9
01:00:35.000                             : en:10
01:06:38.000                             : en:11
01:14:10.000                             : en:12
01:20:51.000                             : en:13
01:26:24.000                             : en:14
01:33:12.000                             : en:15
01:41:03.000                             : en:16



Скриншоты:
[+] Всего файлов в раздаче - 1:
Clara.2018.WEB-DL(1080p).OlLanDGroup.mkv3.80 GB

Похожие раздачи по запросу - клара:
2019-03-10 U Клара / Clara (2018) WEB-DLRip от MegaPeer | HDRezka Studio 1.45 GB ↑ 139 ↓ 63
2019-02-20 U Клара / Clara (2018) WEBRip | LakeFilms 664.77 MB ↑ 82 ↓ 8
2019-02-20 U Клара / Clara (2018) WEBRip 720p | LakeFilms 1.98 GB ↑ 88 ↓ 35
2019-02-20 U Клара / Clara (2018) WEBRip 1080p | LakeFilms 3.67 GB ↑ 86 ↓ 19

Отзывы
Зарегистрируйтесь чтобы добавить комментарий.
Обратная связь
Copyleft ©