↑↓Torrent.by
Поиск
Логин: Регистрация
Пароль: Восстановить пароль
Загрузка...

Гоголь. Страшная месть (2018) BDRip 1080p | Лицензия

Скачать gogol-strashnaya-mest-2018-bdrip-1080p-licenziya.torrent
U Магнитная ссылка Размер: 7.38 GB Раздают: 159 Качают: 123 Добавлен: 2019-03-10 19:29:28
Гоголь. Страшная месть (2018) BDRip 1080p | Лицензия

Название: Гоголь. Страшная месть
Год выхода: 2018
Жанр: Детектив, приключения, триллер
Страна: Россия
Перевод: Оригинальный русский язык | Лицензия BD RUS
Продолжительность: 01:46:40
Режиссер: Егор Баранов
В ролях: Александр Петров, Олег Меньшиков, Евгений Стычкин, Артем Сучков, Таисия Вилкова, Юлия Франц, Ян Цапник, Евгений Сытый, Сергей Бадюк, Артем Ткаченко и др.

О фильме: Две сотни лет назад малороссийские хутора разоряла шайка нехристей-ляхов во главе с могущественным колдуном. С тех пор рыщет в окрестностях Диканьки неизвестный Чёрный Всадник, ловит молодых девушек и жестоко расправляется с ними, будто мстит за что. И следующей его жертвой может стать Лиза. Чтобы спасти возлюбленную, писарь Николай Гоголь должен разбить злые чары и победить древнее проклятье. Ни одному из смертных ещё не удавалось это, но к счастью, на помощь Гоголю приходит гениальный столичный сыщик Яков Гуро, и у него уже есть главный подозреваемый…

Файл
Качество: BDRip 1080p | BD RUS
Видео: MPEG-4 AVC, 1920x804, 7755 kbps, 24,000 fps
Звук#1: русский, DTS 5.1 ch, 48 kHz, 24 bit, 1509 kbps
Звук#2: русский, AC3, 5.1 ch, 48 kHz, 16 bit,  640 kbps
Субтитры: русские (полные), английские (полные)

Релиз:


[+] MI
Общее
Уникальный идентификатор                 : 230772173182577286100186936876555730294 (0xAD9D1A96FC6DAA65AB12EC0F75567D76)
Полное имя                               : E:TorrentGogolStrashnayaMestBDRip1080p.mkv
Формат                                   : Matroska
Версия формата                           : Version 4 / Version 2
Размер файла                             : 7,38 Гбайт
Продолжительность                        : 1 ч. 46 м.
Общий поток                              : 9905 Кбит/сек
Дата кодирования                         : UTC 2019-03-10 12:11:01
Программа кодирования                    : mkvmerge v9.5.0 ('Quiet Fire') 64bit
Библиотека кодирования                   : libebml v1.3.4 + libmatroska v1.4.5

Видео
Идентификатор                            : 1
Формат                                   : AVC
Формат/Информация                        : Advanced Video Codec
Профиль формата                          : High@L4.1
Настройки формата                        : CABAC / 5 Ref Frames
Параметр CABAC формата                   : Да
Параметр RefFrames формата               : 5 кадров
Идентификатор кодека                     : V_MPEG4/ISO/AVC
Продолжительность                        : 1 ч. 46 м.
Битрейт                                  : 7755 Кбит/сек
Ширина                                   : 1920 пикселей
Высота                                   : 804 пикселя
Соотношение сторон                       : 2,40:1
Режим частоты кадров                     : Постоянный
Частота кадров                           : 24,000 кадра/сек
Цветовое пространство                    : YUV
Субдискретизация насыщенности            : 4:2:0
Битовая глубина                          : 8 бит
Тип развёртки                            : Прогрессивная
Бит/(Пиксели*Кадры)                      : 0.209
Размер потока                            : 5,78 Гбайт (78%)
Библиотека кодирования                   : x264 core 157 r2935 545de2f
Настройки программы                      : cabac=1 / ref=5 / deblock=1:-1:-1 / analyse=0x3:0x113 / me=umh / subme=11 / psy=1 / psy_rd=1.00:0.00 / mixed_ref=1 / me_range=48 / chroma_me=1 / trellis=2 / 8x8dct=1 / cqm=0 / deadzone=21,11 / fast_pskip=0 / chroma_qp_offset=-2 / threads=9 / lookahead_threads=2 / sliced_threads=0 / nr=0 / decimate=0 / interlaced=0 / bluray_compat=0 / constrained_intra=0 / bframes=14 / b_pyramid=2 / b_adapt=2 / b_bias=0 / direct=3 / weightb=1 / open_gop=0 / weightp=2 / keyint=240 / keyint_min=24 / scenecut=40 / intra_refresh=0 / rc_lookahead=120 / rc=2pass / mbtree=0 / bitrate=7755 / ratetol=1.0 / qcomp=0.70 / qpmin=0 / qpmax=69 / qpstep=4 / cplxblur=20.0 / qblur=0.5 / vbv_maxrate=50000 / vbv_bufsize=62500 / nal_hrd=none / filler=0 / ip_ratio=1.40 / pb_ratio=1.30 / aq=1:1.00
Язык                                     : Russian
Default                                  : Да
Forced                                   : Нет
Цветовой диапазон                        : Limited
Основные цвета                           : BT.709
Характеристики трансфера                 : BT.709
Коэффициенты матрицы                     : BT.709

Аудио #1
Идентификатор                            : 2
Формат                                   : DTS
Формат/Информация                        : Digital Theater Systems
Идентификатор кодека                     : A_DTS
Продолжительность                        : 1 ч. 46 м.
Вид битрейта                             : Постоянный
Битрейт                                  : 1509 Кбит/сек
Каналы                                   : 6 каналов
Расположение каналов                     : Front: L C R, Side: L R, LFE
Частота                                  : 48,0 КГц
Частота кадров                           : 93,750 кадра/сек (512 SPF)
Битовая глубина                          : 24 бит
Метод сжатия                             : С потерями
Размер потока                            : 1,12 Гбайт (15%)
Заголовок                                : DTS
Язык                                     : Russian
Default                                  : Да
Forced                                   : Нет

Аудио #2
Идентификатор                            : 3
Формат                                   : AC-3
Формат/Информация                        : Audio Coding 3
Идентификатор кодека                     : A_AC3
Продолжительность                        : 1 ч. 46 м.
Вид битрейта                             : Постоянный
Битрейт                                  : 640 Кбит/сек
Каналы                                   : 6 каналов
Расположение каналов                     : Front: L C R, Side: L R, LFE
Частота                                  : 48,0 КГц
Частота кадров                           : 31,250 кадров/сек (1536 SPF)
Битовая глубина                          : 16 бит
Метод сжатия                             : С потерями
Размер потока                            : 488 Мбайт (6%)
Язык                                     : Russian
Default                                  : Нет
Forced                                   : Нет

Текст #1
Идентификатор                            : 4
Формат                                   : UTF-8
Идентификатор кодека                     : S_TEXT/UTF8
Идентификатор кодека/Информация          : UTF-8 Plain Text
Продолжительность                        : 1 ч. 41 м.
Битрейт                                  : 78 бит/сек
ElementCount                             : 1176
Размер потока                            : 58,9 Кбайт (0%)
Язык                                     : Russian
Default                                  : Нет
Forced                                   : Нет

Текст #2
Идентификатор                            : 5
Формат                                   : UTF-8
Идентификатор кодека                     : S_TEXT/UTF8
Идентификатор кодека/Информация          : UTF-8 Plain Text
Продолжительность                        : 1 ч. 41 м.
Битрейт                                  : 49 бит/сек
ElementCount                             : 1176
Размер потока                            : 37,2 Кбайт (0%)
Язык                                     : English
Default                                  : Нет
Forced                                   : Нет

Меню
00:00:00.000                             : :Chapter 1
00:02:05.916                             : :Chapter 2
00:12:12.250                             : :Chapter 3
00:25:21.166                             : :Chapter 4
00:40:19.916                             : :Chapter 5
00:52:32.625                             : :Chapter 6
01:07:14.041                             : :Chapter 7
01:17:52.791                             : :Chapter 8
01:31:43.625                             : :Chapter 9




Скриншоты:
[+] Всего файлов в раздаче - 1:
GogolStrashnayaMestBDRip1080p.mkv7.38 GB

Показать еще раздачи по запросу гоголь:
2019-03-13 U Гоголь. Страшная месть (2018) BDRip от MegaPeer | Лицензия 1.46 GB ↑ 977 ↓ 2
2019-03-11 U Гоголь. Страшная месть (2018) BDRip 720p | Лицензия 4.17 GB ↑ 49 ↓ 22
2019-03-10 U Гоголь. Страшная месть (2018) BDRip | Лицензия 1.45 GB ↑ 237 ↓ 80
2019-02-21 U Гоголь. Страшная месть (2018) DVDRip от Tapochek | Лицензия 2К1.47 GB ↑ 112 ↓ 60
2018-10-11 U Гоголь. Страшная месть (2018) WEB-DLRip от Generalfilm | КПК | iTunes 405.37 MB ↑ 155 ↓ 14
2018-10-11 U Гоголь. Страшная месть (2018) WEB-DLRip от ExKinoRay | iTunes 746.04 MB ↑ 107 ↓ 19
2018-10-11 U Гоголь. Страшная месть (2018) WEB-DLRip от Scarabey | iTunes 1К1.44 GB ↑ 405 ↓ 85

Отзывы
Зарегистрируйтесь чтобы добавить комментарий.
Обратная связь
Copyleft ©