↑↓Torrent.by
Поиск
Логин: Регистрация
Пароль: Восстановить пароль
Загрузка...

Будто во сне / State Like Sleep (2018) WEB-DL 1080p | HDRezka Studio

Скачать budto-vo-sne-state-like-sleep-2018-web-dl-1080p-hdrezka-studio.torrent
U Магнитная ссылка Размер: 5.72 GB Раздают: 134 Качают: 38 Добавлен: 2019-03-10 19:29:39
Будто во сне / State Like Sleep (2018) WEB-DL 1080p | HDRezka Studio

Название: Будто во сне
Оригинальное название: State Like Sleep
Год выпуска: 2018
Жанр:  Драма, триллер, детектив
Режиссер: Мередит Данлак
В ролях: Кэтрин Уотерстон, Михиль Хаусман, Майкл Шеннон, Люк Эванс, Мэри Кэй Плэйс, Марк О'Брайэн, Рэйчел Уилсон, Тесса Мосси, Карло Рота, Бо Мартин

О фильме:
Безутешная вдова Кэтрин узнает о тайной жизни своего знаменитого мужа, покончившего с собой. Для того, чтобы пролить свет на обстоятельства его смерти, она отправляется в секретный секс-клуб, который пользуется популярностью у мужчин высшего света, и начинает расследование.

Страна: США
Студия: Sight Unseen Pictures, Code Red Productions, Scythia Films
Продолжительность: 01:44:45
Перевод: Профессиональный многоголосый [HDRezka Studio]

Файл
Кодек: x264
Качество: WEB-DL 1080p
Видео: MPEG-4 AVC, 6981 Кбит/с, 1920x816, 23.976 кадр/с
Аудио №1: Русский (AC3, 2 ch, 192 Кбит/с)
Аудио №2: Английский (E-AC3, 6 ch, 640 Кбит/с)
Субтитры: Английские


[+] M/I
General
Unique ID                   : 291483830616600137803307915684875070004 (0xDB49BE67A3D643B36255D422640BEA34)
Complete name               : A:State.Like.Sleep.2018.webdL.108Op.AMZN.werecut.PROD.mkv
Format                      : Matroska
Format version              : Version 4
File size                   : 2.00 MiB
Duration                    : 1 h 44 min
Overall bit rate            : 2 669 b/s
Movie name                  : State Like Sleep 2018 OT werecut PROD.
Encoded date                : UTC 2019-03-09 20:12:39
Writing application         : mkvmerge v28.0.0 ('Voice In My Head') 64-bit
Writing library             : libebml v1.3.6 + libmatroska v1.4.9
IsTruncated                 : Yes

Video
ID                          : 1
Format                      : AVC
Format/Info                 : Advanced Video Codec
Format profile              : High@L4
Format settings             : CABAC / 4 Ref Frames
Format settings, CABAC      : Yes
Format settings, ReFrames   : 4 frames
Codec ID                    : V_MPEG4/ISO/AVC
Duration                    : 1 h 44 min
Width                       : 1 920 pixels
Height                      : 816 pixels
Display aspect ratio        : 2.35:1
Frame rate mode             : Constant
Frame rate                  : 23.976 (24000/1001) FPS
Color space                 : YUV
Chroma subsampling          : 4:2:0
Bit depth                   : 8 bits
Scan type                   : Progressive
Language                    : English
Default                     : Yes
Forced                      : No
Color range                 : Limited
Color primaries             : BT.709
Transfer characteristics    : BT.709
Matrix coefficients         : BT.709

Audio #1
ID                          : 2
Format                      : AC-3
Format/Info                 : Audio Coding 3
Commercial name             : Dolby Digital
Codec ID                    : A_AC3
Duration                    : 1 h 44 min
Bit rate mode               : Constant
Bit rate                    : 192 kb/s
Channel(s)                  : 2 channels
Channel layout              : L R
Sampling rate               : 48.0 kHz
Frame rate                  : 31.250 FPS (1536 SPF)
Bit depth                   : 16 bits
Compression mode            : Lossy
Stream size                 : 144 MiB
Title                       : HDREZKA STUDIO
Language                    : Russian
Service kind                : Complete Main
Default                     : Yes
Forced                      : No

Audio #2
ID                          : 3
Format                      : E-AC-3
Format/Info                 : Enhanced AC-3
Commercial name             : Dolby Digital Plus
Codec ID                    : A_EAC3
Duration                    : 1 h 44 min
Bit rate mode               : Constant
Bit rate                    : 640 kb/s
Channel(s)                  : 6 channels
Channel layout              : L R C LFE Ls Rs
Sampling rate               : 48.0 kHz
Frame rate                  : 31.250 FPS (1536 SPF)
Compression mode            : Lossy
Stream size                 : 480 MiB
Language                    : English
Service kind                : Complete Main
Default                     : No
Forced                      : No

Text
ID                          : 4
Format                      : UTF-8
Codec ID                    : S_TEXT/UTF8
Codec ID/Info               : UTF-8 Plain Text
Title                       : SDH
Language                    : English
Default                     : No
Forced                      : No



Скриншоты:
[+] Всего файлов в раздаче - 1:
State.Like.Sleep.2018.webdL.108Op.AMZN.werecut.PROD.mkv5.72 GB

Похожие раздачи по запросу - будто:
2019-03-11 U Будто во сне / State Like Sleep (2018) WEB-DLRip | HDRezka Studio 1.41 GB ↑ 71 ↓ 26
2019-01-03 U Будто во сне / State Like Sleep (2018) WEBRip 1080p | L 3.53 GB ↑ 44 ↓ 16

Отзывы
Зарегистрируйтесь чтобы добавить комментарий.
Обратная связь
Copyleft ©