↑↓Torrent.by
Поиск
Логин: Регистрация
Пароль: Восстановить пароль
Загрузка...

Пышка / Dumplin' (2018) WEB-DLRip | iTunes

Скачать pyshka-dumplin-2018-web-dlrip-itunes.torrent
U Магнитная ссылка Размер: 1.46 GB Раздают: 51 Качают: 13 Добавлен: 2019-03-11 07:27:58
Пышка / Dumplin' (2018) WEB-DLRip | iTunes

Название: Пышка
Оригинальное название: Dumplin'
Год выпуска: 2018
Жанр:  Комедия, драма
Режиссер: Энн Флетчер / Anne Fletcher
В ролях: Дженнифер Энистон, Одейя Раш, Даниэль МакДональд, Мэдди Биллио, Бекс Тейлор-Клаус, Люк Бенвард, Джорджи Флорес, Дав Камерон, Хэролд Перрино, Кэти Нэджими

Описание: Уиллоудин, полная дочь-подросток бывшей королевы красоты, в знак протеста решает участвовать в местном конкурсе красоты, который курирует её мама. Вскоре к ней присоединяются и другие девушки, чья внешность отличается от общепринятых стандартов.

Страна: США
Продолжительность: 01:50:12
Перевод: Дублированный | iTunes

Файл
Качество: WEB-DLRip
Формат: AVI
Видео: 720x304 (2.37:1), 23.976 fps, XviD build 73 ~1503 kbps avg, 0.29 bit/pixel
Аудио: 48 kHz, AC3 Dolby Digital, 3/2 (L,C,R,l,r) + LFE ch, ~384 kbps
Субтитры: Нет


[+] MediaInfo
Формат                                   : AVI
Формат/Информация                        : Audio Video Interleave
Размер файла                             : 1,46 Гбайт
Продолжительность                        : 1 ч. 50 м.
Общий поток                              : 1896 Кбит/сек
Программа кодирования                    : VirtualDubMod 1.5.10.3
Библиотека кодирования                   : VirtualDubMod build 2550/release

Видео
Идентификатор                            : 0
Формат                                   : MPEG-4 Visual
Профиль формата                          : Advanced Simple@L5
Настройки формата                        : BVOP1 / Custom Matrix
Параметр BVOP формата                    : 1
Параметр QPel формата                    : Нет
Параметр GMC формата                     : Без точки перехода
Параметр матрицы формата                 : Выборочная
Идентификатор кодека                     : XVID
Идентификатор кодека/Подсказка           : XviD
Продолжительность                        : 1 ч. 50 м.
Битрейт                                  : 1504 Кбит/сек
Ширина                                   : 720 пикселей
Высота                                   : 304 пикселя
Соотношение сторон                       : 2,35:1
Частота кадров                           : 23,976 (24000/1001) кадра/сек
Цветовое пространство                    : YUV
Субдискретизация насыщенности            : 4:2:0
Битовая глубина                          : 8 бит
Тип развёртки                            : Прогрессивная
Метод сжатия                             : С потерями
Бит/(Пиксели*Кадры)                      : 0.287
Размер потока                            : 1,16 Гбайт (79%)
Библиотека кодирования                   : XviD 73

Аудио
Идентификатор                            : 1
Формат                                   : AC-3
Формат/Информация                        : Audio Coding 3
Коммерческое название                    : Dolby Digital
Идентификатор кодека                     : 2000
Продолжительность                        : 1 ч. 49 м.
Вид битрейта                             : Постоянный
Битрейт                                  : 384 Кбит/сек
Каналы                                   : 6 каналов
Channel layout                           : L R C LFE Ls Rs
Частота                                  : 48,0 КГц
Частота кадров                           : 31,250 кадров/сек (1536 SPF)
Битовая глубина                          : 16 бит
Метод сжатия                             : С потерями
Размер потока                            : 302 Мбайт (20%)
Выравнивание                             : Разделение по промежуткам
Продолжительность промежутка             : 42  мс. (1,00 видеокадр)
Время предзагрузки промежутка            : 500  мс



Скриншоты:
[+] Всего файлов в раздаче - 1:
Пышка_2018_WEB-DLRip.avi1.46 GB

Похожие раздачи по запросу - пышка:
2019-02-02 U Пышка / Dumplin' (2018) WEB-DLRip-AVC от OlLanDGroup | iTunes 1.98 GB ↑ 189 ↓ 48
2019-01-09 U Пышка / Dumplin' (2018) WEBRip | HDRezka Studio 1.45 GB ↑ 128 ↓ 15
2019-01-01 U Пышка / Dumplin' (2018) WEBRip 1080p | HDrezka Studio 2К4.57 GB ↑ 166 ↓ 54

Отзывы
Зарегистрируйтесь чтобы добавить комментарий.
Обратная связь
Copyleft ©