↑↓Torrent.by
Поиск
Логин: Регистрация
Пароль: Восстановить пароль
Загрузка...

Хроники хищных городов / Mortal Engines (2018) UHD BDRemux 2160p от селезень | 4K | HDR | D, P | iTunes

Скачать hroniki-hischnyh-gorodov-mortal-engines-2018-uhd-bdremux-2160p-ot-selezen-4k-hdr-d-p-itunes.torrent
U Магнитная ссылка Размер: 60.82 GB Раздают: 41 Качают: 67 Добавлен: 2019-03-11 07:28:04
Хроники хищных городов / Mortal Engines (2018) UHD BDRemux 2160p от селезень | 4K | HDR | D, P | iTunes

Название: Хроники хищных городов
Оригинальное название: Mortal Engines
Год выхода: 2018
Жанр: Фантастика, фэнтези, боевик, триллер, приключения
Режиссер: Кристиан Риверс
В ролях: Гера Хилмарсдоттир, Роберт Шиэн, Хьюго Уивинг, Джихе, Ронан Рафтери, Лейла Джордж, Патрик Мэлахайд, Стивен Лэнг, Колин Сэлмон, Марк Митчинсон, Меник Гунератне, Реге Пейдж, Фрэнки Адамс, Лейфур Сигурдарсон, Кан Уэст, Эндрю Лииз, Ки Чан, Сара Пирс, Марк Хэдлоу, Карен Писториус, Поппи Маклеод, Джоэл Тобек, Йосон Ан

О фильме: Прошли тысячелетия после того, как мир настиг апокалипсис. Человечество адаптировалось и теперь живет по новым правилам. Гигантские движущиеся мегаполисы рассекают пустоши и поглощают маленькие города ради ресурсов. Том Нэтсуорти из нижнего уровня великого Лондона оказывается в смертельной опасности, когда на его пути появляется скрывающаяся от закона бунтарка Эстер Шоу. Они не должны были встретиться, но им суждено изменить будущее.

Страна: Новая Зеландия, США
Студия: Media Rights Capital (MRC), Scholastic Productions, Silvertongue Films
Продолжительность: 02:08:21
Перевод(ы):
#1: Дублированный | iTunes
#2: Профессиональный многоголосый | HDRezka Studio

Качество: BDRemux 2160p
Видео: 3840x2160 at 23.976 fps, MPEG-H HEVC HDR Video, 62200 kbps avg
Звук:
Аудио #01: 48 kHz, AC3, 5.1, 384 Kbps | Дублированный | RUS |
Аудио #02: 48 kHz, AC3, 2.0, 192 Kbps | Профессиональный многоголосый | RUS |
Аудио #03: 48 kHz, TrueHD, 7.1, 4519 Kbps | Оригинал |  ENG |
Аудио #04: 48 kHz, AC3, 5.1, 448 Kbps | Оригинал |  ENG |
Субтитры: Русские (Forced, full), английские

Релиз:


[+] MI
General
Unique ID                   : 224301712053958850259734006833296317226 (0xA8BEF039D0EE835864F1E43380C21B2A)
Complete name               : D:Video111Mortal.Engines.2018.UHD.BDREMUX.2160p.HDR.seleZen.mkv
Format                      : Matroska
Format version              : Version 4
File size                   : 60.8 GiB
Duration                    : 2 h 8 min
Overall bit rate mode       : Variable
Overall bit rate            : 67.8 Mb/s
Movie name                  : Mortal Engines 2018 from селезень
Encoded date                : UTC 2019-03-10 15:31:45
Writing application         : mkvmerge v31.0.0 ('Dolores In A Shoestand') 64-bit
Writing library             : libebml v1.3.6 + libmatroska v1.4.9

Video
ID                          : 1
Format                      : HEVC
Format/Info                 : High Efficiency Video Coding
Commercial name             : HDR10
Format profile              : Main 10@L5.1@High
Codec ID                    : V_MPEGH/ISO/HEVC
Duration                    : 2 h 8 min
Bit rate                    : 62.2 Mb/s
Width                       : 3 840 pixels
Height                      : 2 160 pixels
Display aspect ratio        : 16:9
Frame rate mode             : Constant
Frame rate                  : 23.976 (24000/1001) FPS
Color space                 : YUV
Chroma subsampling          : 4:2:0 (Type 2)
Bit depth                   : 10 bits
Bits/(Pixel*Frame)          : 0.313
Stream size                 : 55.8 GiB (92%)
Language                    : English
Default                     : Yes
Forced                      : No
Color range                 : Limited
Color primaries             : BT.2020
Transfer characteristics    : PQ
Matrix coefficients         : BT.2020 non-constant
Mastering display color pri : Display P3
Mastering display luminance : min: 0.0001 cd/m2, max: 1000 cd/m2
Maximum Content Light Level : 1000 cd/m2
Maximum Frame-Average Light : 921 cd/m2

Audio #1
ID                          : 2
Format                      : AC-3
Format/Info                 : Audio Coding 3
Commercial name             : Dolby Digital
Codec ID                    : A_AC3
Duration                    : 2 h 8 min
Bit rate mode               : Constant
Bit rate                    : 384 kb/s
Channel(s)                  : 6 channels
Channel layout              : L R C LFE Ls Rs
Sampling rate               : 48.0 kHz
Frame rate                  : 31.250 FPS (1536 SPF)
Bit depth                   : 16 bits
Compression mode            : Lossy
Delay relative to video     : -17 ms
Stream size                 : 352 MiB (1%)
Title                       : Dub [iTunes]
Language                    : Russian
Service kind                : Complete Main
Default                     : Yes
Forced                      : Yes

Audio #2
ID                          : 3
Format                      : AC-3
Format/Info                 : Audio Coding 3
Commercial name             : Dolby Digital
Codec ID                    : A_AC3
Duration                    : 2 h 8 min
Bit rate mode               : Constant
Bit rate                    : 192 kb/s
Channel(s)                  : 2 channels
Channel layout              : L R
Sampling rate               : 44.1 kHz
Frame rate                  : 28.711 FPS (1536 SPF)
Bit depth                   : 16 bits
Compression mode            : Lossy
Stream size                 : 176 MiB (0%)
Title                       : MVO [HDRezka Studio]
Language                    : Russian
Service kind                : Complete Main
Default                     : No
Forced                      : No

Audio #3
ID                          : 4
Format                      : MLP FBA 16-ch
Format/Info                 : Meridian Lossless Packing FBA with 16-channel presentation
Commercial name             : Dolby TrueHD with Dolby Atmos
Codec ID                    : A_TRUEHD
Duration                    : 2 h 8 min
Bit rate mode               : Variable
Bit rate                    : 4 519 kb/s
Maximum bit rate            : 7 425 kb/s
Channel(s)                  : 8 channels
Channel layout              : L R C LFE Ls Rs Lb Rb
Sampling rate               : 48.0 kHz
Frame rate                  : 1 200.000 FPS (40 SPF)
Compression mode            : Lossless
Stream size                 : 4.05 GiB (7%)
Title                       : Original
Language                    : English
Default                     : No
Forced                      : No
Number of dynamic objects   : 11
Bed channel count           : 1 channel
Bed channel configuration   : LFE

Audio #4
ID                          : 5
Format                      : AC-3
Format/Info                 : Audio Coding 3
Commercial name             : Dolby Digital
Codec ID                    : A_AC3
Duration                    : 2 h 8 min
Bit rate mode               : Constant
Bit rate                    : 448 kb/s
Channel(s)                  : 6 channels
Channel layout              : L R C LFE Ls Rs
Sampling rate               : 48.0 kHz
Frame rate                  : 31.250 FPS (1536 SPF)
Bit depth                   : 16 bits
Compression mode            : Lossy
Stream size                 : 411 MiB (1%)
Language                    : English
Service kind                : Complete Main
Default                     : No
Forced                      : No

Text #1
ID                          : 6
Format                      : UTF-8
Codec ID                    : S_TEXT/UTF8
Codec ID/Info               : UTF-8 Plain Text
Duration                    : 1 h 43 min
Bit rate                    : 1 b/s
Count of elements           : 19
Stream size                 : 852 Bytes (0%)
Title                       : Forced
Language                    : Russian
Default                     : Yes
Forced                      : Yes

Text #2
ID                          : 7
Format                      : UTF-8
Codec ID                    : S_TEXT/UTF8
Codec ID/Info               : UTF-8 Plain Text
Duration                    : 1 h 57 min
Bit rate                    : 74 b/s
Count of elements           : 1332
Stream size                 : 63.8 KiB (0%)
Title                       : Full
Language                    : Russian
Default                     : No
Forced                      : No

Text #3
ID                          : 8
Format                      : UTF-8
Codec ID                    : S_TEXT/UTF8
Codec ID/Info               : UTF-8 Plain Text
Duration                    : 1 h 57 min
Bit rate                    : 38 b/s
Count of elements           : 1074
Stream size                 : 33.0 KiB (0%)
Title                       : Full
Language                    : English
Default                     : No
Forced                      : No

Menu
00:00:00.000                : :Глава 01
00:09:24.397                : :Глава 02
00:16:13.305                : :Глава 03
00:24:20.625                : :Глава 04
00:31:24.591                : :Глава 05
00:35:53.067                : :Глава 06
00:41:27.818                : :Глава 07
00:44:53.816                : :Глава 08
00:50:16.805                : :Глава 09
00:54:21.174                : :Глава 10
01:00:51.397                : :Глава 11
01:07:12.069                : :Глава 12
01:11:12.851                : :Глава 13
01:17:37.736                : :Глава 14
01:25:25.620                : :Глава 15
01:33:30.396                : :Глава 16
01:39:28.545                : :Глава 17
01:47:58.263                : :Глава 18
01:52:11.558                : :Глава 19
01:58:33.523                : :Глава 20



Скриншоты:
[+] Всего файлов в раздаче - 1:
Mortal.Engines.2018.UHD.BDREMUX.2160p.HDR.seleZen.mkv60.82 GB

Показать еще раздачи по запросу хроники:
2019-03-10 U Хроники хищных городов / Mortal Engines (2018) BDRip-HEVC 1080p от HANNIBAL | iTunes 4.68 GB ↑ 97 ↓ 49
2019-03-08 U Хроники хищных городов / Mortal Engines (2018) BDRip от MegaPeer | iTunes 2.13 GB ↑ 36 ↓ 14
2019-03-08 U Хроники хищных городов / Mortal Engines (2018) BDRip-AVC от HELLYWOOD | iTunes 2.85 GB ↑ 40 ↓ 21
2019-03-07 U Хроники хищных городов / Mortal Engines (2018) BDRip от MegaPeer | iTunes 1.46 GB ↑ 100 ↓ 34
2019-03-07 U Хроники хищных городов / Mortal Engines (2018) BDRemux 1080p от селезень | iTunes 31.66 GB ↑ 117 ↓ 155
2019-03-07 U Хроники хищных городов / Mortal Engines (2018) HDRip от Scarabey | iTunes 2.12 GB ↑ 35 ↓ 12
2019-03-06 U Хроники хищных городов / Mortal Engines (2018) HDRip от Scarabey | iTunes 1.45 GB ↑ 73 ↓ 17

Отзывы
Зарегистрируйтесь чтобы добавить комментарий.
Обратная связь
Copyleft ©