↑↓Torrent.by
Поиск
Логин: Регистрация
Пароль: Восстановить пароль
Загрузка...

Звёзды (2018) WEB-DLRip от OlLanDGroup | iTunes

Скачать zvezdy-2018-web-dlrip-ot-ollandgroup-itunes.torrent
U Магнитная ссылка Размер: 742.96 MB Раздают: 41 Качают: 213 Добавлен: 2019-03-11 10:31:57
Звёзды (2018) WEB-DLRip от OlLanDGroup | iTunes

Информация о фильме
Название: Звёзды
Год выпуска: 2018
Жанр: Драма, комедия
Режиссер: Александр Новиков-Янгинов
В ролях: Виктор Сухоруков, Сейдулла Молдаханов, Амаду Мамадаков, Георгий Пицхелаури, Игорь Гаспарян, Елена Сачук, Алеся Гузько

О фильме:
Главный герой, родом из Узбекистана и русский по паспорту, отправляется на заработки в Москву: его дочери необходимо дорогостоящее лечение. В столице ставшей для него чужой родины учитель русского языка вынужден работать штукатуром, строителем и продавцом на рынке. В круговороте событий герой оказывается перед сложным выбором: предать свои ценности или спасти дочь ценой собственных убеждений.

Страна: Россия
Студия: ВГИК-Дебют
Продолжительность: 01:37:47
Язык: Русский | iTunes

Файл
Формат: AVI
Качество: WEB-DLRip
Видео: XviD, 688x288, 24 fps, 925 kbps
Звук: МР3, 2 ch, 128 kbps
Субтитры: Нет

Релиз:


[+] MediaInfo:
General
Complete name                  : D:Мои рипыStars.WEB-DLRip.OlLanDGroup.avi
Format                         : AVI
Format/Info                    : Audio Video Interleave
File size                      : 743 MiB
Duration                       : 1 h 37 min
Overall bit rate               : 1 062 kb/s
Writing application            : VirtualDubMod 1.5.10.3 | www.virtualdub-fr.org || (build 2550/release)
Writing library                : VirtualDubMod build 2550/release

Video
ID                             : 0
Format                         : MPEG-4 Visual
Format profile                 : Advanced Simple@L5
Format settings                : BVOP1 / Custom Matrix
Format settings, BVOP          : 1
Format settings, QPel          : No
Format settings, GMC           : No warppoints
Format settings, Matrix        : Custom
Codec ID                       : XVID
Codec ID/Hint                  : XviD
Duration                       : 1 h 37 min
Bit rate                       : 925 kb/s
Width                          : 688 pixels
Height                         : 288 pixels
Display aspect ratio           : 2.40:1
Frame rate                     : 24.000 FPS
Color space                    : YUV
Chroma subsampling             : 4:2:0
Bit depth                      : 8 bits
Scan type                      : Progressive
Compression mode               : Lossy
Bits/(Pixel*Frame)             : 0.194
Stream size                    : 647 MiB (87%)
Writing library                : XviD 73

Audio
ID                             : 1
Format                         : MPEG Audio
Format version                 : Version 1
Format profile                 : Layer 3
Codec ID                       : 55
Codec ID/Hint                  : MP3
Duration                       : 1 h 37 min
Bit rate mode                  : Constant
Bit rate                       : 128 kb/s
Channel(s)                     : 2 channels
Sampling rate                  : 48.0 kHz
Frame rate                     : 41.667 FPS (1152 SPF)
Compression mode               : Lossy
Stream size                    : 89.5 MiB (12%)
Alignment                      : Aligned on interleaves
Interleave, duration           : 42  ms (1.00 video frame)
Interleave, preload duration   : 504  ms
Writing library                : LAME3.99r
Encoding settings              : -m s -V 4 -q 2 -lowpass 17 -b 128



Скриншоты:
[+] Всего файлов в раздаче - 1:
Stars.WEB-DLRip.OlLanDGroup.avi742.96 MB

Показать еще раздачи по запросу dlrip:
Вчера U Бамблби / Bumblebee (2018) WEB-DLRip от Scarabey | P 1.44 GB ↑ 77 ↓ 24
Вчера U Гонка со временем / Headlock / Against the Clock (2019) WEB-DLRip от ExKinoRay | HDRezka Studio 1.37 GB ↑ 138 ↓ 69
Вчера U Осевшие / Still (2018) WEB-DLRip от ExKinoRay | HDRezka Studio 1К1.45 GB ↑ 27 ↓ 27
Вчера U Тобол (2019) WEB-DLRip от MegaPeer | iTunes 1.46 GB ↑ 214 ↓ 154
Вчера U Тобол (2019) WEB-DLRip | iTunes 1.46 GB ↑ 371 ↓ 221
2019-03-20 U Русский Бес (2018) WEB-DLRip-AVC от ExKinoRay | iTunes 743.90 MB ↑ 72 ↓ 14
2019-03-20 U Проект засекречен / Проект "Синяя книга" / Project Blue Book [S01] (2019) WEB-DLRip | LostFilm 5.56 GB ↑ 35 ↓ 61

Отзывы
Зарегистрируйтесь чтобы добавить комментарий.
Обратная связь
Copyleft ©