↑↓Torrent.by
Поиск
Логин: Регистрация
Пароль: Восстановить пароль
Загрузка...

Что? Где? Когда? Весенняя серия игр [01 из 05] (2019) HDTV 1080i от GeneralFilm

Скачать chto-gde-kogda-vesennyaya-seriya-igr-01-iz-05-2019-hdtv-1080i-ot-generalfilm.torrent
U Магнитная ссылка Размер: 3.69 GB Раздают: 52 Качают: 12 Добавлен: 2019-03-11 10:32:15
Что? Где? Когда? Весенняя серия игр [01 из 05] (2019) HDTV 1080i от GeneralFilm

Год выпуска: 2019
Жанр:  Интеллектуальное шоу
Выпущено: Россия, Продюсерский центр "ИГРА-ТВ"
Ведущий: Борис Крюк

О фильме: Интеллектуальная викторина, наиболее распространённая в русскоязычной среде. Была создана в 1975 г. телеведущим Владимиром Ворошиловым. Игра очень быстро стала настолько популярной, что кроме оригинальной телевизионной версии появилась спортивная версия игры. Сущность игры заключается в противостоянии команды Знатоков (игровой команды из шести человек) команде Телезрителей. Знатоки должны за одну минуту при помощи мозгового штурма найти ответ на вопрос, присланный телезрителем. Как правило, игрокам задаются вопросы, ответить на которые можно с помощью общих знаний и логики. За каждый правильный ответ команда Знатоков получает одно очко, в случае неверного ответа очко начисляется команде Телезрителей. Игра ведётся до шести очков.

Качество: HDTV (1080i)
Видео: MPEG-TS AVC, ~ 7100 Кбит/с, 1920x1080
Аудио: Русский Русский (AC3, 2 ch, 384 Кбит/с), (MP2, 2 ch, 192 Кбит/с)
Продолжительность: 1 х ~ 01:00:00
Перевод: Не требуется
Субтитры: нет

Релиз:

Огромная благодарность Media-Art-Club за созданный постер к раздаче
[+] MediaInfo

Общее
Идентификатор                            : 1 (0x1)
Полное имя                               : D:ЗаписьChto.Gde.Kogda.Vesennjaja serija.Igr.2019.HDTV(1080i).GeneralFilm1.Chto.Gde.Kogda.Vesennjaja serija.Igr.2019.HDTV(1080i).GeneralFilm.ts
Формат                                   : MPEG-TS
Размер файла                             : 3,69 Гбайт
Продолжительность                        : 1 ч. 5 м.
Режим общего битрейта                    : Переменный
Общий поток                              : 8088 Кбит/сек

Видео
Идентификатор                            : 2931 (0xB73)
Идентификатор меню                       : 1342 (0x53E)
Формат                                   : AVC
Формат/Информация                        : Advanced Video Codec
Профиль формата                          : High@L4
Параметр CABAC формата                   : Да
Параметр ReFrames формата                : 4 кадра
Идентификатор кодека                     : 27
Продолжительность                        : 1 ч. 5 м.
Битрейт                                  : 7107 Кбит/сек
Ширина                                   : 1920 пикселей
Высота                                   : 1080 пикселей
Соотношение сторон                       : 16:9
Частота кадров                           : 25,000 кадров/сек
Цветовое пространство                    : YUV
Субдискретизация насыщенности            : 4:2:0
Битовая глубина                          : 8 бит
Тип развёртки                            : MBAFF
Метод сохранения типа развёртки          : Чередующиеся поля
Порядок развёртки                        : Верхнее поле первое
Бит/(Пиксели*Кадры)                      : 0.137
Размер потока                            : 3,24 Гбайт (88%)

Аудио #1
Идентификатор                            : 2932 (0xB74)
Идентификатор меню                       : 1342 (0x53E)
Формат                                   : AC-3
Формат/Информация                        : Audio Coding 3
Расширение режима                        : CM (complete main)
Параметр Endianness формата              : Big
Идентификатор кодека                     : 129
Продолжительность                        : 1 ч. 5 м.
Вид битрейта                             : Постоянный
Битрейт                                  : 384 Кбит/сек
Каналы                                   : 6 каналов
Расположение каналов                     : Front: L C R, Side: L R, LFE
Частота                                  : 48,0 КГц
Частота кадров                           : 31,250 кадров/сек (1536 spf)
Битовая глубина                          : 16 бит
Метод сжатия                             : С потерями
Задержка видео                           : -160 мс.
Размер потока                            : 179 Мбайт (5%)
Язык                                     : Russian

Аудио #2
Идентификатор                            : 2933 (0xB75)
Идентификатор меню                       : 1342 (0x53E)
Формат                                   : MPEG Audio
Версия формата                           : Version 1
Профиль формата                          : Layer 2
Режим                                    : Joint stereo
Расширение режима                        : Intensity Stereo + MS Stereo
Идентификатор кодека                     : 3
Продолжительность                        : 1 ч. 5 м.
Вид битрейта                             : Постоянный
Битрейт                                  : 192 Кбит/сек
Каналы                                   : 2 канала
Частота                                  : 48,0 КГц
Метод сжатия                             : С потерями
Задержка видео                           : -160 мс.
Размер потока                            : 89,7 Мбайт (2%)
Язык                                     : Russian




Скриншоты:
[+] Всего файлов в раздаче - 1:
01.Chto.Gde.Kogda.Vesennjaja serija.Igr.2019.HDTV(1080i).GeneralFilm.ts3.69 GB

Показать еще раздачи по запросу когда:
2019-03-11 U Что? Где? Когда? Весенняя серия игр [01 из 05] (2019) HDTVRip от GeneralFilm 932.64 MB ↑ 82 ↓ 20
2019-02-18 U Что? Где? Когда? Дети XXI века [01-03 из 03] (2019) HDTVRip от GeneralFilm 2.47 GB ↑ 30 ↓ 38
2019-02-11 U Что? Где? Когда? Дети XXI века [01-02 из 03] (2019) HDTVRip от GeneralFilm 1.69 GB ↑ 123 ↓ 107
2019-02-03 U Что? Где? Когда? Дети XXI века [01 из 03] (2019) HDTVRip от GeneralFilm 901.30 MB ↑ 92 ↓ 20
2018-12-24 U Что? Где? Когда? Зимняя серия игр [01-05 из 05] (2018) HDTVRip от GeneralFilm 4.92 GB ↑ 150 ↓ 309
2018-12-17 U Что? Где? Когда? Зимняя серия игр [01-04 из 05] (2018) HDTVRip от GeneralFilm 3.54 GB ↑ 107 ↓ 152
2018-12-10 U Что? Где? Когда? Зимняя серия игр [01-03 из 05] (2018) HDTVRip от GeneralFilm 2.67 GB ↑ 83 ↓ 200

Отзывы
Зарегистрируйтесь чтобы добавить комментарий.
Обратная связь
Copyleft ©