↑↓Torrent.by
Поиск
Логин: Регистрация
Пароль: Восстановить пароль
Загрузка...

Звёзды (2018) WEB-DL 1080p | iTunes

Скачать zvezdy-2018-web-dl-1080p-itunes.torrent
U Магнитная ссылка Размер: 3.38 GB Раздают: 191 Качают: 179 Добавлен: 2019-03-11 13:17:08
Звёзды (2018) WEB-DL 1080p | iTunes

Название: Звёзды
Год выпуска: 2018
Жанр: Драма, комедия
Режиссер: Александр Новиков-Янгинов
В ролях: Виктор Сухоруков, Сейдулла Молдаханов, Амаду Мамадаков, Георгий Пицхелаури, Игорь Гаспарян, Елена Сачук, Алеся Гузько

О фильме: Главный герой, родом из Узбекистана и русский по паспорту, отправляется на заработки в Москву: его дочери необходимо дорогостоящее лечение. В столице ставшей для него чужой родины учитель русского языка вынужден работать штукатуром, строителем и продавцом на рынке. В круговороте событий герой оказывается перед сложным выбором: предать свои ценности или спасти дочь ценой собственных убеждений.

Страна: Россия
Студия: ВГИК-Дебют
Продолжительность: 01:37:47
Язык: Русский | iTunes

Файл
Качество: WEB-DL 1080p
Контейнер: MKV
Видео: MPEG4 AVC Video, H264, 2.40:1, 1920x804, 24 fps, 4466 kbps
Аудио: Russian: AC3, 6 ch, 384 kbps, 16 bits, 48.0 KHz
Субтитры: Нет


[+] MediaInfo
General
Unique ID : 182313508189984810220225604369916064972 (0x89284DF1AD231028AC64383C08CF74CC)
Complete name : D:Zvezdi.2018.WEB-DL.1080p.mkv
Format : Matroska
Format version : Version 4 / Version 2
File size : 3.38 GiB
Duration : 1 h 37 min
Overall bit rate : 4 948 kb/s
Encoded date : UTC 2019-03-11 08:20:10
Writing application : mkvmerge v6.1.0 ('Old Devil') built on Mar 2 2013 14:32:37
Writing library : libebml v1.3.0 + libmatroska v1.4.0

Video
ID : 1
Format : AVC
Format/Info : Advanced Video Codec
Format profile : High@L4
Format settings : CABAC / 5 Ref Frames
Format settings, CABAC : Yes
Format settings, ReFrames : 5 frames
Codec ID : V_MPEG4/ISO/AVC
Duration : 1 h 37 min
Bit rate : 4 466 kb/s
Width : 1 920 pixels
Height : 804 pixels
Display aspect ratio : 2.40:1
Frame rate mode : Constant
Frame rate : 24.000 FPS
Color space : YUV
Chroma subsampling : 4:2:0
Bit depth : 8 bits
Scan type : Progressive
Bits/(Pixel*Frame) : 0.121
Stream size : 3.05 GiB (90%)
Language : English
Default : Yes
Forced : No
Color range : Limited
Color primaries : BT.709
Transfer characteristics : BT.709
Matrix coefficients : BT.709

Audio
ID : 2
Format : AC-3
Format/Info : Audio Coding 3
Codec ID : A_AC3
Duration : 1 h 37 min
Bit rate mode : Constant
Bit rate : 384 kb/s
Channel(s) : 6 channels
Channel positions : Front: L C R, Side: L R, LFE
Sampling rate : 48.0 kHz
Frame rate : 31.250 FPS (1536 SPF)
Bit depth : 16 bits
Compression mode : Lossy
Stream size : 269 MiB (8%)
Language : Russian
Service kind : Complete Main
Default : Yes
Forced : No

Menu
00:00:00.000 : en:Глава 1
00:06:29.583 : en:Глава 2
00:14:51.708 : en:Глава 3
00:22:52.333 : en:Глава 4
00:28:59.623 : en:Глава 5
00:35:11.538 : en:Глава 6
00:41:41.746 : en:Глава 7
00:47:19.871 : en:Глава 8
00:52:06.371 : en:Глава 9
00:59:58.246 : en:Глава 10
01:07:21.079 : en:Глава 11
01:15:44.870 : en:Глава 12
01:22:08.286 : en:Глава 13
01:28:01.452 : en:Глава 14



Скриншоты:
[+] Всего файлов в раздаче - 1:
Zvezdi.2018.WEB-DL.1080p.mkv3.38 GB

Показать еще раздачи по запросу itunes:
Сегодня U Русский Бес (2018) WEB-DLRip-AVC от ExKinoRay | iTunes 743.90 MB ↑ 71 ↓ 11
Сегодня U Экстаз / Climax (2018) BDRip от MegaPeer | iTunes 1.42 GB ↑ 79 ↓ 15
Вчера U Человек-паук: Через вселенные / Spider-Man: Into the Spider-Verse (2018) BDRip 1080p от qqss44 & MegaPeer | iTunes 7.57 GB ↑ 36 ↓ 15
Вчера U BEEF: Русский хип-хоп (2019) WEB-DLRip от Tapochek | iTunes 1.46 GB ↑ 53 ↓ 15
Вчера U BEEF: Русский хип-хоп (2019) WEB-DL 1080p от Tapochek | iTunes 3.10 GB ↑ 61 ↓ 16
2019-03-18 U Счастливые дни (1991) WEB-DL 1080p | iTunes 3.37 GB ↑ 27 ↓ 3
2019-03-18 U Аквамен / Aquaman (2018) HDRip от Scarabey | IMAX Edition | iTunes 2.11 GB ↑ 34 ↓ 8

Отзывы
Зарегистрируйтесь чтобы добавить комментарий.
Обратная связь
Copyleft ©