↑↓Torrent.by
Поиск
Логин: Регистрация
Пароль: Восстановить пароль
Загрузка...

Человек-паук: Через вселенные / Spider-Man: Into the Spider-Verse (2018) UHD BDRemux 2160p от селезень | 4K | HDR | iTunes

Скачать chelovek-pauk-cherez-vselennye-spider-man-into-the-verse-2018-uhd-bdremux-2160p-ot-selezen-4k-hdr-itunes.torrent
U Магнитная ссылка Размер: 42.36 GB Раздают: 134 Качают: 295 Добавлен: 2019-03-11 13:17:12
Человек-паук: Через вселенные / Spider-Man: Into the Spider-Verse (2018) UHD BDRemux 2160p от селезень | 4K | HDR | iTunes

Название: Человек-паук: Через вселенные
Оригинальное название: Spider-Man: Into the Spider-Verse
Год выхода: 2018
Жанр: Мультфильм, фантастика, комедия, приключения, семейный, полнометражный
Режиссер: Боб Персичетти, Питер Рэмзи, Родни Ротман
В ролях: Шамеик Мур, Джейк Джонсон, Хейли Стайнфелд, Махершала Али, Брайан Тайри Генри, Лили Томлин, Лорен Велес, Зои Кравиц, Джон Мулэйни, Кимико Гленн, Николас Кейдж, Кэтрин Хан, Лив Шрайбер, Крис Пайн, Натали Моралес, Эдвин Хэбакон, Оскар Айзек, Грета Ли, Стэн Ли, Йорма Такконе

О фильме: Мы всё знаем о Питере Паркере. Он спас город, влюбился, а потом спасал город снова и снова… Но все это — в нашем измерении. А что если в результате работы гигантского коллайдера откроется окно из одного измерения в другое? Найдется ли в нем свой Человек-паук? И как он будет выглядеть? Приготовьтесь к тому, что в разных вселенных могут быть разные Люди-пауки и однажды им придется собраться вместе для борьбы с почти непобедимым врагом.

Страна: США
Студия: Avi Arad Productions, Columbia Pictures Corporation, Lord Miller
Продолжительность: 01:56:50
Перевод: Дублированный | iTunes

Качество: BDRemux 2160p
Видео: 3840x2160 at 23.976 fps, MPEG-H HEVC HDR Video, 47500 kbps avg
Звук:
Аудио #01: 48 kHz, AC3, 5.1, 384 Kbps | iTunes | RUS |
Аудио #02: 48 kHz, TrueHD, 7.1, 3267 Kbps | Оригинал |  ENG |
Аудио #03: 48 kHz, AC3, 5.1, 640 Kbps | Оригинал |  ENG |
Субтитры: Русские (Full), украинские (Full), английские

Релиз:


[+] MI
General
Unique ID                   : 246179530323637142896119851333949579231 (0xB93473F23532D2BC179F6D2B69ABDFDF)
Complete name               : D:Video111Spider-Man.Into.the.Spider-Verse.2018.UHD.BDREMUX.2160p.HDR.seleZen.mkv
Format                      : Matroska
Format version              : Version 4
File size                   : 42.4 GiB
Duration                    : 1 h 56 min
Overall bit rate mode       : Variable
Overall bit rate            : 51.9 Mb/s
Movie name                  : Spider-Man.Into the Spider-Verse 2018 from селезень
Encoded date                : UTC 2019-03-10 23:09:43
Writing application         : mkvmerge v31.0.0 ('Dolores In A Shoestand') 64-bit
Writing library             : libebml v1.3.6 + libmatroska v1.4.9

Video
ID                          : 1
Format                      : HEVC
Format/Info                 : High Efficiency Video Coding
Commercial name             : HDR10
Format profile              : Main 10@L5.1@High
Codec ID                    : V_MPEGH/ISO/HEVC
Duration                    : 1 h 56 min
Bit rate                    : 47.5 Mb/s
Width                       : 3 840 pixels
Height                      : 2 160 pixels
Display aspect ratio        : 16:9
Frame rate mode             : Constant
Frame rate                  : 23.976 (24000/1001) FPS
Color space                 : YUV
Chroma subsampling          : 4:2:0 (Type 2)
Bit depth                   : 10 bits
Bits/(Pixel*Frame)          : 0.239
Stream size                 : 38.8 GiB (92%)
Language                    : English
Default                     : Yes
Forced                      : No
Color range                 : Limited
Color primaries             : BT.2020
Transfer characteristics    : PQ
Matrix coefficients         : BT.2020 non-constant
Mastering display color pri : Display P3
Mastering display luminance : min: 0.0050 cd/m2, max: 4000 cd/m2
Maximum Content Light Level : 9877 cd/m2
Maximum Frame-Average Light : 934 cd/m2

Audio #1
ID                          : 2
Format                      : AC-3
Format/Info                 : Audio Coding 3
Commercial name             : Dolby Digital
Codec ID                    : A_AC3
Duration                    : 1 h 56 min
Bit rate mode               : Constant
Bit rate                    : 384 kb/s
Channel(s)                  : 6 channels
Channel layout              : L R C LFE Ls Rs
Sampling rate               : 48.0 kHz
Frame rate                  : 31.250 FPS (1536 SPF)
Bit depth                   : 16 bits
Compression mode            : Lossy
Stream size                 : 321 MiB (1%)
Title                       : Dub [iTunes]
Language                    : Russian
Service kind                : Complete Main
Default                     : Yes
Forced                      : Yes

Audio #2
ID                          : 3
Format                      : MLP FBA 16-ch
Format/Info                 : Meridian Lossless Packing FBA with 16-channel presentation
Commercial name             : Dolby TrueHD with Dolby Atmos
Codec ID                    : A_TRUEHD
Duration                    : 1 h 56 min
Bit rate mode               : Variable
Bit rate                    : 3 267 kb/s
Maximum bit rate            : 4 935 kb/s
Channel(s)                  : 8 channels
Channel layout              : L R C LFE Ls Rs Lb Rb
Sampling rate               : 48.0 kHz
Frame rate                  : 1 200.000 FPS (40 SPF)
Compression mode            : Lossless
Stream size                 : 2.67 GiB (6%)
Title                       : Original
Language                    : English
Default                     : No
Forced                      : No
Number of dynamic objects   : 11
Bed channel count           : 1 channel
Bed channel configuration   : LFE

Audio #3
ID                          : 4
Format                      : AC-3
Format/Info                 : Audio Coding 3
Commercial name             : Dolby Digital
Codec ID                    : A_AC3
Duration                    : 1 h 56 min
Bit rate mode               : Constant
Bit rate                    : 640 kb/s
Channel(s)                  : 6 channels
Channel layout              : L R C LFE Ls Rs
Sampling rate               : 48.0 kHz
Frame rate                  : 31.250 FPS (1536 SPF)
Bit depth                   : 16 bits
Compression mode            : Lossy
Stream size                 : 535 MiB (1%)
Language                    : English
Service kind                : Complete Main
Default                     : No
Forced                      : No

Text #1
ID                          : 5
Format                      : UTF-8
Codec ID                    : S_TEXT/UTF8
Codec ID/Info               : UTF-8 Plain Text
Duration                    : 1 h 55 min
Bit rate                    : 82 b/s
Count of elements           : 1467
Stream size                 : 70.3 KiB (0%)
Title                       : Full [iTunes]
Language                    : Russian
Default                     : No
Forced                      : No

Text #2
ID                          : 6
Format                      : UTF-8
Codec ID                    : S_TEXT/UTF8
Codec ID/Info               : UTF-8 Plain Text
Duration                    : 1 h 55 min
Bit rate                    : 81 b/s
Count of elements           : 1468
Stream size                 : 68.9 KiB (0%)
Title                       : Full [iTunes]
Language                    : Ukrainian
Default                     : No
Forced                      : No

Text #3
ID                          : 7
Format                      : UTF-8
Codec ID                    : S_TEXT/UTF8
Codec ID/Info               : UTF-8 Plain Text
Duration                    : 1 h 55 min
Bit rate                    : 54 b/s
Count of elements           : 1389
Stream size                 : 46.4 KiB (0%)
Title                       : Full [iTunes]
Language                    : English
Default                     : No
Forced                      : No

Menu
00:00:00.000                : en:Chapter 01
00:09:03.793                : en:Chapter 02
00:14:04.719                : en:Chapter 03
00:18:51.714                : en:Chapter 04
00:29:39.027                : en:Chapter 05
00:34:14.636                : en:Chapter 06
00:40:34.432                : en:Chapter 07
00:44:22.827                : en:Chapter 08
00:48:06.884                : en:Chapter 09
00:58:45.855                : en:Chapter 10
01:06:04.460                : en:Chapter 11
01:09:55.483                : en:Chapter 12
01:20:00.003                : en:Chapter 13
01:24:54.923                : en:Chapter 14
01:33:33.399                : en:Chapter 15
01:55:26.920                : en:Chapter 16



Скриншоты:
[+] Всего файлов в раздаче - 1:
Spider-Man.Into.the.Spider-Verse.2018.UHD.BDREMUX.2160p.HDR.seleZen.mkv42.36 GB

Показать еще раздачи по запросу человек:
2019-03-19 U Человек-паук: Через вселенные / Spider-Man: Into the Spider-Verse (2018) BDRip 1080p от qqss44 & MegaPeer | iTunes 7.57 GB ↑ 36 ↓ 15
2019-03-18 U Человек-паук: Через вселенные / Spider-Man: Into the Spider-Verse (2018) BDRip 1080p от Ash61 | 3D-Video | halfOU | iTunes 14.04 GB ↑ 71 ↓ 27
2019-03-16 U Человек-паук: Через вселенные / Spider-Man: Into the Spider-Verse (2018) WEB-DLRip от Dalemake | D | Локализованный видеоряд 1.47 GB ↑ 105 ↓ 13
2019-03-14 U Человек-паук: Через вселенные / Spider-Man: Into the Spider-Verse (2018) BDRip-HEVC 1080p от Donatik | iTunes 7.78 GB ↑ 77 ↓ 51
2019-03-13 U Человек-паук: Через вселенные / Spider-Man: Into the Spider-Verse (2018) BDRemux 1080p от селезень | iTunes 21.36 GB ↑ 79 ↓ 45
2019-03-12 U Человек-паук: Через вселенные / Spider-Man: Into the Spider-Verse (2018) HDRip от OlLanDGroup | iTunes 746.88 MB ↑ 59 ↓ 20
2019-03-12 U Человек-паук: Через вселенные / Spider-Man: Into the Spider-Verse (2018) UHD BDRip 2160p | 4K | HDR | iTunes 15.85 GB ↑ 66 ↓ 54

Отзывы
Зарегистрируйтесь чтобы добавить комментарий.
Обратная связь
Copyleft ©