↑↓Torrent.by
Поиск
Логин: Регистрация
Пароль: Восстановить пароль
Загрузка...

Чёрная магия / Santet (2018) WEB-DLRip | HDRezka Studio

Скачать chernaya-magiya-santet-2018-web-dlrip-hdrezka-studio.torrent
U Магнитная ссылка Размер: 1.45 GB Раздают: 73 Качают: 16 Добавлен: 2019-03-12 06:28:11
Чёрная магия / Santet (2018) WEB-DLRip | HDRezka Studio

Название: Чёрная магия
Оригинальное название: Santet
Год выпуска: 2018
Жанр:  Ужасы
Режиссер: Хелфи Кардит
В ролях: Келли Брук, Джаз Окампо, Аю Диа Паша, Рэй Сахетапи

О фильме: Ренди вместе со своей супругой Лорой и двумя детьми возвращается в отчий дом. Здесь совсем недавно его отец Дхарма наложил на себя руки, и теперь любящий сын беспокоится о своей матери, а она ведет себя после произошедшего с ее мужем неадекватно. В женщину словно вселился злой дух, она стала одержима черной магией. Она ведет себя, как сумасшедшая, и явно не хочет видеть в своем доме своего сына с невесткой и внуками. Все это приводит Ренди в ужас и смятение.

Страна: Индонезия
Продолжительность: 01:25:39
Перевод: Профессиональный (многоголосый закадровый) | HDRezka Studio

Файл
Качество: WEB-DLRip
Формат: AVI
Видео: 720x304 (2.37:1), 23.976 fps, XviD build 73 ~2230 kbps avg, 0.42 bit/pixel
Аудио: Russian: 48 kHz, AC3 Dolby Digital, 2/0 (L,R) ch, ~192 kbps
Субтитры: Нет


[+] MediaInfo
Формат                                   : AVI
Формат/Информация                        : Audio Video Interleave
Размер файла                             : 1,45 Гбайт
Продолжительность                        : 1 ч. 25 м.
Общий поток                              : 2432 Кбит/сек
Программа кодирования                    : VirtualDubMod 1.5.10.3
Библиотека кодирования                   : VirtualDubMod build 2550/release

Видео
Идентификатор                            : 0
Формат                                   : MPEG-4 Visual
Профиль формата                          : Advanced Simple@L5
Настройки формата                        : BVOP1 / Custom Matrix
Параметр BVOP формата                    : 1
Параметр QPel формата                    : Нет
Параметр GMC формата                     : Без точки перехода
Параметр матрицы формата                 : Выборочная
Идентификатор кодека                     : XVID
Идентификатор кодека/Подсказка           : XviD
Продолжительность                        : 1 ч. 25 м.
Битрейт                                  : 2230 Кбит/сек
Ширина                                   : 720 пикселей
Высота                                   : 304 пикселя
Соотношение сторон                       : 2,35:1
Частота кадров                           : 23,976 (24000/1001) кадра/сек
Цветовое пространство                    : YUV
Субдискретизация насыщенности            : 4:2:0
Битовая глубина                          : 8 бит
Тип развёртки                            : Прогрессивная
Метод сжатия                             : С потерями
Бит/(Пиксели*Кадры)                      : 0.425
Размер потока                            : 1,33 Гбайт (92%)
Библиотека кодирования                   : XviD 73

Аудио
Идентификатор                            : 1
Формат                                   : AC-3
Формат/Информация                        : Audio Coding 3
Коммерческое название                    : Dolby Digital
Идентификатор кодека                     : 2000
Продолжительность                        : 1 ч. 25 м.
Вид битрейта                             : Постоянный
Битрейт                                  : 192 Кбит/сек
Каналы                                   : 2 канала
Channel layout                           : L R
Частота                                  : 48,0 КГц
Частота кадров                           : 31,250 кадров/сек (1536 SPF)
Битовая глубина                          : 16 бит
Метод сжатия                             : С потерями
Размер потока                            : 118 Мбайт (8%)
Выравнивание                             : Разделение по промежуткам
Продолжительность промежутка             : 42  мс. (1,00 видеокадр)
Время предзагрузки промежутка            : 500  мс.



Скриншоты:
[+] Всего файлов в раздаче - 1:
Черная магия_2018_WEB-DLRip.avi1.45 GB

Отзывы
Зарегистрируйтесь чтобы добавить комментарий.
Обратная связь
Copyleft ©