↑↓Torrent.by
Поиск
Логин: Регистрация
Пароль: Восстановить пароль
Загрузка...

Святая Агата / St. Agatha (2018) WEB-DL 1080p от селезень | iTunes

Скачать svyataya-agata-st-agatha-2018-web-dl-1080p-ot-selezen-itunes.torrent
U Магнитная ссылка Размер: 6.02 GB Раздают: 74 Качают: 65 Добавлен: 2019-03-12 06:28:20
Святая Агата / St. Agatha (2018) WEB-DL 1080p от селезень | iTunes

Название: Святая Агата
Оригинальное название: St. Agatha
Год выхода: 2018
Жанр: Ужасы
Режиссер: Даррен Линн Боусман
В ролях: Сабрина Керн, Кэролин Хеннеси, Кортни Хэлверсон, Сет Майклс, Трин Миллер, Линдсэй Сейм, Шоун Флетчер, Джэйсон Уорнер Смит, Максимус Мёрра, Марша Фи Бергер

О фильме: 50-е годы ХХ века, маленький городок штата Джорджия. Молодая авантюристка Мэри исколесила всю Америку, занимаясь мошенничеством. Когда девушка понимает, что беременна, она решает временно укрыться в женском монастыре. Героиня не подозревает, что монастырь хранит ужасные темные тайны, и никто еще не смог покинуть его стены, чтобы о них рассказать. Спустя какое-то время необъяснимая тревога, поселившаяся в ее сердце, начинает приобретать видимые формы, и становится ясно, что монахини совсем не те, за кого себя выдают.

Страна: США
Студия: Dragon Blood Holdings, St. Agatha, The Outside Writers
Продолжительность: 01:43:07
Перевод: Дублированный | iTunes

Качество: WEB-DL 1080p | AMZN Version
Видео: MPEG-4 AVC, 1920x800, 7331 Kbit/s, 23.976 fps
Звук:
Аудио #01: 48 kHz, AC3, 5.1, 384 Kbps | iTunes | RUS |
Аудио #02: 48 kHz, E-AC3, 5.1, 640 Kbps | Оригинал |  ENG |
Субтитры: Английские

Релиз:


[+] MI
General
Unique ID                   : 100381655840004151581446918692327718387 (0x4B84CDBE4BE5D787D90341AB8600FDF3)
Complete name               : D:Video111St.Agatha.2018.AMZN.WEB-DL.1080p.seleZen.mkv
Format                      : Matroska
Format version              : Version 4
File size                   : 6.02 GiB
Duration                    : 1 h 43 min
Overall bit rate            : 8 358 kb/s
Movie name                  : St Agatha 2018 from селезень
Encoded date                : UTC 2019-03-11 21:43:54
Writing application         : mkvmerge v31.0.0 ('Dolores In A Shoestand') 64-bit
Writing library             : libebml v1.3.6 + libmatroska v1.4.9

Video
ID                          : 1
Format                      : AVC
Format/Info                 : Advanced Video Codec
Format profile              : High@L4
Format settings             : CABAC / 4 Ref Frames
Format settings, CABAC      : Yes
Format settings, ReFrames   : 4 frames
Codec ID                    : V_MPEG4/ISO/AVC
Duration                    : 1 h 43 min
Bit rate mode               : Constant
Bit rate                    : 7 331 kb/s
Nominal bit rate            : 10 000 kb/s
Width                       : 1 920 pixels
Height                      : 800 pixels
Display aspect ratio        : 2.40:1
Frame rate mode             : Constant
Frame rate                  : 23.976 (24000/1001) FPS
Color space                 : YUV
Chroma subsampling          : 4:2:0
Bit depth                   : 8 bits
Scan type                   : Progressive
Bits/(Pixel*Frame)          : 0.199
Stream size                 : 5.28 GiB (88%)
Language                    : English
Default                     : Yes
Forced                      : No
Color range                 : Limited
Color primaries             : BT.709
Transfer characteristics    : BT.709
Matrix coefficients         : BT.709

Audio #1
ID                          : 2
Format                      : AC-3
Format/Info                 : Audio Coding 3
Commercial name             : Dolby Digital
Codec ID                    : A_AC3
Duration                    : 1 h 43 min
Bit rate mode               : Constant
Bit rate                    : 384 kb/s
Channel(s)                  : 6 channels
Channel layout              : L R C LFE Ls Rs
Sampling rate               : 48.0 kHz
Frame rate                  : 31.250 FPS (1536 SPF)
Bit depth                   : 16 bits
Compression mode            : Lossy
Stream size                 : 283 MiB (5%)
Title                       : iTunes
Language                    : Russian
Service kind                : Complete Main
Default                     : Yes
Forced                      : Yes

Audio #2
ID                          : 3
Format                      : E-AC-3
Format/Info                 : Enhanced AC-3
Commercial name             : Dolby Digital Plus
Codec ID                    : A_EAC3
Duration                    : 1 h 43 min
Bit rate mode               : Constant
Bit rate                    : 640 kb/s
Channel(s)                  : 6 channels
Channel layout              : L R C LFE Ls Rs
Sampling rate               : 48.0 kHz
Frame rate                  : 31.250 FPS (1536 SPF)
Compression mode            : Lossy
Stream size                 : 472 MiB (8%)
Title                       : Original
Language                    : English
Service kind                : Complete Main
Default                     : No
Forced                      : No

Text
ID                          : 4
Format                      : UTF-8
Codec ID                    : S_TEXT/UTF8
Codec ID/Info               : UTF-8 Plain Text
Duration                    : 1 h 42 min
Bit rate                    : 45 b/s
Count of elements           : 1390
Stream size                 : 34.2 KiB (0%)
Title                       : SDH
Language                    : English
Default                     : No
Forced                      : No

Menu
00:00:00.000                : en:Chapter 01
00:09:03.793                : en:Chapter 02
00:14:04.719                : en:Chapter 03
00:18:51.714                : en:Chapter 04
00:29:39.027                : en:Chapter 05
00:34:14.636                : en:Chapter 06
00:40:34.432                : en:Chapter 07
00:44:22.827                : en:Chapter 08
00:48:06.884                : en:Chapter 09
00:58:45.855                : en:Chapter 10
01:06:04.460                : en:Chapter 11
01:09:55.483                : en:Chapter 12
01:20:00.003                : en:Chapter 13
01:24:54.923                : en:Chapter 14
01:33:33.399                : en:Chapter 15
01:55:26.920                : en:Chapter 16



Скриншоты:
[+] Всего файлов в раздаче - 1:
St.Agatha.2018.AMZN.WEB-DL.1080p.seleZen.mkv6.02 GB

Похожие раздачи по запросу - святая:
2019-03-12 U Святая Агата / St. Agatha (2018) WEB-DLRip от MegaPeer | iTunes 1.46 GB ↑ 156 ↓ 69
2016-01-06 U Святая семёрка / Trinity Seven [S01] (2014) BDRip-AVC | L2 2.82 GB ↑ 31 ↓ 7
2013-12-25 U Ограбление века / Святая вода / Holy Water (2009) HDTVRip-AVC от MediaClub | P 1.85 GB ↑ 96 ↓ 84
2013-11-27 U Святая Рита Кашийская / Santa Rita da Cascia (2004) DVDRip 1К2.06 GB ↑ 1865 ↓ 32
2013-11-01 U Ограбление века / Святая вода / Holy Water (2009) HDTV 1080i | P 4.46 GB ↑ 50 ↓ 134

Отзывы
Зарегистрируйтесь чтобы добавить комментарий.
Обратная связь
Copyleft ©