↑↓Torrent.by
Поиск
Логин: Регистрация
Пароль: Восстановить пароль
Загрузка...

Дракон расправил крылья / The Dragon Unleashed (2019) WEBRip 1080p | LakeFilms

Скачать drakon-raspravil-krylya-the-dragon-unleashed-2019-webrip-1080p-lakefilms.torrent
U Магнитная ссылка Размер: 1.26 GB Раздают: 63 Качают: 39 Добавлен: 2019-03-12 10:33:55
Дракон расправил крылья / The Dragon Unleashed (2019) WEBRip 1080p | LakeFilms

Название: Дракон расправил крылья
Оригинальное название: The Dragon Unleashed
Год выпуска: 2019
Жанр:  Боевик
Выпущено: США,Top Dollar Films
Режиссер: Рене Перез
В ролях: Чейз Блумквист, Джон Шнайдер, Эмили Свит, Чарли Глакин, Ева Хэмилтон, Тони Джексон, Джон Озуна

О фильме: Мастер боевых искусств, работающий наёмным убийцей на военных, начинает сомневаться в правильности своего жизненного выбора после очередного задания. Однако, уйти из теневой спецслужбы США не так просто. Для этого нужно побороть не только своих демонов, но и беспощадных бывших коллег.

Техданные
Качество: WEBRip (1080p)
Видео: MPEG-4 AVC, ~ 2100 kb/s, 1920x1016, 23.976 FPS
Аудио: AC3, 2 ch, 256 Кбит/с
Продолжительность: 01:18:03
Перевод: Любительский двухголосый закадровый (LakeFilms)
Присутствует реклама!


[+] MI
General
Unique ID                                : 133946841009323378795175171121095085705 (0x64C5392400731EC6923F020EF6938E89)
Complete name                            : E:The.Dragon.Unleashed.2019.1080p.LakeFilms
Format                                   : Matroska
Format version                           : Version 4 / Version 2
File size                                : 1.26 GiB
Duration                                 : 1h 18mn
Overall bit rate                         : 2 313 Kbps
Writing application                      : XviD4PSP 7.0.468 DAILY
Writing library                          : Lavf57.71.100
ENCODING_INFO                            : MATROSKA,WEBM > MKV / H264 > X264 ABR 2100kbps Very Fast / AAC-LC > AC3 CBR 256kbps

Video
ID                                       : 1
Format                                   : AVC
Format/Info                              : Advanced Video Codec
Format profile                           : High@L4.0
Format settings, CABAC                   : Yes
Format settings, ReFrames                : 4 frames
Codec ID                                 : V_MPEG4/ISO/AVC
Duration                                 : 1h 18mn
Bit rate                                 : 2 100 Kbps
Width                                    : 1 920 pixels
Height                                   : 1 016 pixels
Display aspect ratio                     : 1.890
Frame rate mode                          : Constant
Frame rate                               : 23.976 fps
Color space                              : YUV
Chroma subsampling                       : 4:2:0
Bit depth                                : 8 bits
Scan type                                : Progressive
Bits/(Pixel*Frame)                       : 0.045
Stream size                              : 1.10 GiB (87%)
Writing library                          : x264 core 157 r2935 545de2f
Encoding settings                        : cabac=1 / ref=1 / deblock=1:-2:-2 / analyse=0x3:0x113 / me=hex / subme=2 / psy=1 / psy_rd=1.00:0.00 / mixed_ref=0 / me_range=16 / chroma_me=1 / trellis=0 / 8x8dct=1 / cqm=0 / deadzone=21,11 / fast_pskip=1 / chroma_qp_offset=0 / threads=5 / lookahead_threads=1 / sliced_threads=0 / nr=0 / decimate=1 / interlaced=0 / bluray_compat=0 / constrained_intra=0 / bframes=3 / b_pyramid=2 / b_adapt=1 / b_bias=0 / direct=1 / weightb=1 / open_gop=0 / weightp=1 / keyint=240 / keyint_min=24 / scenecut=40 / intra_refresh=0 / rc_lookahead=10 / rc=abr / mbtree=1 / bitrate=2100 / ratetol=1.0 / qcomp=0.60 / qpmin=0 / qpmax=69 / qpstep=4 / ip_ratio=1.40 / aq=1:1.00
Default                                  : Yes
Forced                                   : No

Audio
ID                                       : 2
Format                                   : AC-3
Format/Info                              : Audio Coding 3
Mode extension                           : CM (complete main)
Format settings, Endianness              : Big
Codec ID                                 : A_AC3
Duration                                 : 1h 18mn
Bit rate mode                            : Constant
Bit rate                                 : 256 Kbps
Channel(s)                               : 2 channels
Channel positions                        : Front: L R
Sampling rate                            : 48.0 KHz
Bit depth                                : 16 bits
Compression mode                         : Lossy
Stream size                              : 143 MiB (11%)
Default                                  : Yes
Forced                                   : No



Скриншоты:
[+] Всего файлов в раздаче - 1:
The.Dragon.Unleashed.2019.1080p.LakeFilms.mkv1.26 GB

Показать еще раздачи по запросу дракон:
2019-02-18 U Принц-дракон / The Dragon Prince [S02] (2019) WEB-DL 720p | SDI Media 4.12 GB ↑ 36 ↓ 11
2018-09-22 U Принц-дракон / The Dragon Prince [S01] (2018) WEBRip 720p | AlexFilm 3.98 GB ↑ 84 ↓ 26
2018-07-16 U Крадущийся тигр, затаившийся дракон: Меч судьбы / Crouching Tiger, Hidden Dragon: Sword of Destiny (2016) BDRip 1080p | L, A 10.23 GB ↑ 23 ↓ 26
2017-09-08 U Крадущийся тигр, затаившийся дракон: Меч судьбы / Crouching Tiger, Hidden Dragon: Sword of Destiny (2016) BDRip 720р от SuperMin | L, A 3.91 GB ↑ 80 ↓ 23
2017-09-07 U Крадущийся тигр, затаившийся дракон: Меч судьбы / Crouching Tiger, Hidden Dragon: Sword of Destiny (2016) BDRip-AVC от SuperMin | L 1.56 GB ↑ 192 ↓ 62
2017-09-06 U Польские легенды: Дракон / Legendy Polskie: Smok (2015) WEBRip 1080p | NewStation 1К337.51 MB ↑ 288 ↓ 49
2016-12-01 U Пит и его дракон / Pete's Dragon (2016) BDRip от ExKinoRay | Лицензия 1.46 GB ↑ 120 ↓ 26

Отзывы
Зарегистрируйтесь чтобы добавить комментарий.
Обратная связь
Copyleft ©