↑↓Torrent.by
Поиск
Логин: Регистрация
Пароль: Восстановить пароль
Загрузка...

Скажи правду [01-03 из 08] (2019) WEB-DLRip от GeneralFilm

Скачать skazhi-pravdu-01-03-iz-08-2019-web-dlrip-ot-generalfilm.torrent
U Магнитная ссылка Размер: 1.63 GB Раздают: 88 Качают: 55 Добавлен: 2019-03-12 12:36:30
Скажи правду [01-03 из 08] (2019) WEB-DLRip от GeneralFilm

Оригинальное название: Скажи правду
Год выпуска: 2019
Жанр:  Драма
Выпущено: Россия, «Star Media»
Режиссер: Андрей Эшпай мл
В ролях: Виктория Исакова, Аглая Шиловская, Павел Трубинер, Гоша Куценко, Зоя Кайдановская, Алёна Бабенко, Игорь Гордин, Инга Оболдина, Евгения Симонова, Алексей Фатеев, Михаил Филиппов, Евгения Уралова, Полина Лазарева, Ирина Бякова, Анна Синякина, Максим Карушев

О фильме: Российская версия «Скажи правду» - адаптация формата «Доктор Фостер» (2015, Великобритания). После пятнадцати лет счастливой семейной жизни Ксения начинает подозревать своего мужа в измене. Мимолётная мысль постепенно перерастает в навязчивую идею, заставляя женщину провести собственное расследование. В поиске правды Ксения заходит так далеко, что ставит под угрозу свою карьеру и отношения со всеми, кто ей дорог. Но пути назад уже нет…

Качество: WEB-DLRip
Видео: XviD build 73, 720x400 (16:9), 25.000 fps, ~ 1350 Kbps (~ 0.185 bit/pixel)
Аудио: 48.0 kHz, AC3, 2/0 ch, 192 kbps
Продолжительность: 3 x ~ 00:50:00
Перевод: Не требуется
Cубтитры: нет

Релиз:


[+] MediaInfo

General
Complete name               : D:RazdachiSkazhi.Pravdu.2019.WEB-DLRip.GeneralFilmSkazhi.Pravdu.e01.avi
Format                      : AVI
Format/Info                 : Audio Video Interleave
File size                   : 557 MiB
Duration                    : 50 min 26 s
Overall bit rate            : 1 545 kb/s
Writing application         : VirtualDubMod 1.5.10.3 | www.virtualdub-fr.org || (build 2550/release)
Writing library             : VirtualDubMod build 2550/release

Video
ID                          : 0
Format                      : MPEG-4 Visual
Format profile              : Advanced Simple@L5
Format settings             : BVOP1 / Custom Matrix
Format settings, BVOP       : 1
Format settings, QPel       : No
Format settings, GMC        : No warppoints
Format settings, Matrix     : Custom
Codec ID                    : XVID
Codec ID/Hint               : XviD
Duration                    : 50 min 26 s
Bit rate                    : 1 343 kb/s
Width                       : 720 pixels
Height                      : 400 pixels
Display aspect ratio        : 16:9
Frame rate                  : 25.000 FPS
Color space                 : YUV
Chroma subsampling          : 4:2:0
Bit depth                   : 8 bits
Scan type                   : Progressive
Compression mode            : Lossy
Bits/(Pixel*Frame)          : 0.187
Stream size                 : 484 MiB (87%)
Writing library             : XviD 73

Audio
ID                          : 1
Format                      : AC-3
Format/Info                 : Audio Coding 3
Commercial name             : Dolby Digital
Codec ID                    : 2000
Duration                    : 50 min 26 s
Bit rate mode               : Constant
Bit rate                    : 192 kb/s
Channel(s)                  : 2 channels
Channel layout              : L R
Sampling rate               : 48.0 kHz
Frame rate                  : 31.250 FPS (1536 SPF)
Bit depth                   : 16 bits
Compression mode            : Lossy
Stream size                 : 69.3 MiB (12%)
Alignment                   : Split accross interleaves
Interleave, duration        : 40  ms (1.00 video frame)
Interleave, preload duratio : 500  ms
Service kind                : Complete Main



Скриншоты:
[+] Всего файлов в раздаче - 3:
Skazhi.Pravdu.e01.avi557.26 MB
Skazhi.Pravdu.e02.avi557.52 MB
Skazhi.Pravdu.e03.avi557.16 MB

Показать еще раздачи по запросу скажи:
2019-03-15 U Скажи правду [01-08 из 08] (2019) WEB-DLRip от GeneralFilm 4.35 GB ↑ 146 ↓ 130
2019-03-15 U Скажи правду [01-08 из 08] (2019) WEB-DL 720p от ExKinoRay 7.79 GB ↑ 72 ↓ 65
2019-03-14 U Скажи правду [01-08 из 08] (2019) SATRip 4.69 GB ↑ 102 ↓ 273
2019-03-14 U Скажи правду [01х01-08 из 08] (2019) SATRip-AVC 5.06 GB ↑ 3 ↓ 8
2019-03-12 U Скажи правду [01-04 из 08] (2019) WEB-DLRip-AVC от Files-x 2.56 GB ↑ 70 ↓ 13
2019-03-12 U Скажи правду [01-02 из 08] (2019) WEB-DLRip-AVC от Files-x 1.29 GB ↑ 51 ↓ 11
2019-03-11 U Скажи правду [01-02 из 08] (2019) WEB-DL 720p от ExKinoRay 1.98 GB ↑ 58 ↓ 17

Отзывы
Зарегистрируйтесь чтобы добавить комментарий.
Обратная связь
Copyleft ©