↑↓Torrent.by
Поиск
Логин: Регистрация
Пароль: Восстановить пароль
Загрузка...

Человек-паук: Через вселенные / Spider-Man: Into the Spider-Verse (2018) HDRip от OlLanDGroup | iTunes

Скачать chelovek-pauk-cherez-vselennye-spider-man-into-the-verse-2018-hdrip-ot-ollandgroup-itunes.torrent
U Магнитная ссылка Размер: 746.88 MB Раздают: 99 Качают: 23 Добавлен: 2019-03-12 12:37:13
Человек-паук: Через вселенные / Spider-Man: Into the Spider-Verse (2018) HDRip от OlLanDGroup | iTunes

Информация о фильме
Название: Человек-паук: Через вселенные
Оригинальное название: Spider-Man: Into the Spider-Verse
Год выпуска: 2018
Жанр: Мультфильм, фантастика, комедия, приключения, семейный, полнометражный
Режиссер: Боб Персичетти, Питер Рэмзи, Родни Ротман
В ролях: Шамеик Мур, Джейк Джонсон, Хейли Стайнфелд, Махершала Али, Брайан Тайри Генри, Лили Томлин, Лорен Велес, Зои Кравиц, Джон Мулэйни, Кимико Гленн, Николас Кейдж, Кэтрин Хан, Лив Шрайбер, Крис Пайн, Натали Моралес, Эдвин Хэбакон, Оскар Айзек, Грета Ли, Стэн Ли, Йорма Такконе

О фильме:
Мы всё знаем о Питере Паркере. Он спас город, влюбился, а потом спасал город снова и снова… Но все это — в нашем измерении. А что если в результате работы гигантского коллайдера откроется окно из одного измерения в другое? Найдется ли в нем свой Человек-паук? И как он будет выглядеть? Приготовьтесь к тому, что в разных вселенных могут быть разные Люди-пауки и однажды им придется собраться вместе для борьбы с почти непобедимым врагом.

Страна: США
Студия: Avi Arad Productions, Columbia Pictures Corporation, Lord Miller
Продолжительность: 01:56:50
Перевод: Дублированный | iTunes

Файл
Формат: AVI
Качество: HDRip
Видео: XviD, 688x288, 23.976 fps, 756 kbps
Звук: MP3, 2 ch, 128 kbps
Субтитры: Нет

Семпл

Релиз:


[+] MediaInfo:
General
Complete name                  : D:Мои рипыSpider-Man.Into.the.Spider-Verse.2018.HDRip.OlLanDGroup.avi
Format                         : AVI
Format/Info                    : Audio Video Interleave
File size                      : 747 MiB
Duration                       : 1 h 56 min
Overall bit rate               : 894 kb/s
Writing application            : VirtualDubMod 1.5.10.3 | www.virtualdub-fr.org || (build 2550/release)
Writing library                : VirtualDubMod build 2550/release

Video
ID                             : 0
Format                         : MPEG-4 Visual
Format profile                 : Advanced Simple@L5
Format settings                : BVOP1 / Custom Matrix
Format settings, BVOP          : 1
Format settings, QPel          : No
Format settings, GMC           : No warppoints
Format settings, Matrix        : Custom
Codec ID                       : XVID
Codec ID/Hint                  : XviD
Duration                       : 1 h 56 min
Bit rate                       : 756 kb/s
Width                          : 688 pixels
Height                         : 288 pixels
Display aspect ratio           : 2.40:1
Frame rate                     : 23.976 (24000/1001) FPS
Color space                    : YUV
Chroma subsampling             : 4:2:0
Bit depth                      : 8 bits
Scan type                      : Progressive
Compression mode               : Lossy
Bits/(Pixel*Frame)             : 0.159
Stream size                    : 632 MiB (85%)
Writing library                : XviD 73

Audio
ID                             : 1
Format                         : MPEG Audio
Format version                 : Version 1
Format profile                 : Layer 3
Codec ID                       : 55
Codec ID/Hint                  : MP3
Duration                       : 1 h 56 min
Bit rate mode                  : Constant
Bit rate                       : 128 kb/s
Channel(s)                     : 2 channels
Sampling rate                  : 48.0 kHz
Frame rate                     : 41.667 FPS (1152 SPF)
Compression mode               : Lossy
Stream size                    : 107 MiB (14%)
Alignment                      : Aligned on interleaves
Interleave, duration           : 42  ms (1.00 video frame)
Interleave, preload duration   : 504  ms
Writing library                : LAME3.99r
Encoding settings              : -m s -V 4 -q 2 -lowpass 17 -b 128



Скриншоты:
[+] Всего файлов в раздаче - 1:
Spider-Man.Into.the.Spider-Verse.2018.HDRip.OlLanDGroup.avi746.88 MB

Показать еще раздачи по запросу человек:
2019-05-07 U Человек-паук: Вдали от дома / Spider-Man: Far from Home (2019) WEBRip 1080p | Трейлер №2 719.73 MB ↑ 58 ↓ 27
2019-04-14 U Человек-паук: Через вселенные / Spider-Man: Into the Spider-Verse (2018) BDRip 1080p от селезень | Локализованная версия | Лицензия 9.11 GB ↑ 113 ↓ 27
2019-03-27 U Человек, который убил Гитлера и затем снежного человека / The Man Who Killed Hitler and (2018) WEB-DL 1080p от OlLanDGroup | HDRezka Studio 3.54 GB ↑ 100 ↓ 62
2019-03-22 U Человек-паук: Через вселенные / Spider-Man: Into the Spider-Verse (2018) BDRip 720p от Scarabey | iTunes 1К4.26 GB ↑ 76 ↓ 33
2019-03-19 U Человек-паук: Через вселенные / Spider-Man: Into the Spider-Verse (2018) BDRip 1080p от qqss44 & MegaPeer | iTunes 7.57 GB ↑ 65 ↓ 17
2019-03-18 U Человек-паук: Через вселенные / Spider-Man: Into the Spider-Verse (2018) BDRip 1080p от Ash61 | 3D-Video | halfOU | iTunes 14.04 GB ↑ 103 ↓ 28
2019-03-16 U Человек-паук: Через вселенные / Spider-Man: Into the Spider-Verse (2018) WEB-DLRip от Dalemake | D | Локализованный видеоряд 1.47 GB ↑ 108 ↓ 17

Отзывы
Зарегистрируйтесь чтобы добавить комментарий.
Обратная связь
Copyleft ©