↑↓Torrent.by
Поиск
Логин: Регистрация
Пароль: Восстановить пароль
Загрузка...

Реинкарнация / Hereditary (2018) BDRip-AVC от OlLanDGroup | Лицензия

Скачать reinkarnaciya-hereditary-2018-bdrip-avc-ot-ollandgroup-licenziya.torrent
U Магнитная ссылка Размер: 2.59 GB Раздают: 45 Качают: 12 Добавлен: 2019-03-12 15:31:05
Реинкарнация / Hereditary (2018) BDRip-AVC от OlLanDGroup | Лицензия

Реинкарнация / Hereditary
«У каждой родословной есть свои тайны»

Год выпуска: 2018
Страна: США
Производство: Palm-Star Entertainment
Жанр:  Ужасы, триллер, драма, детектив

Режиссёр: Ари Астер
В ролях: Алекс Вулф, Гэбриел Бирн, Тони Коллетт, Милли Шапиро, Кристи Саммерхэйс, Морган Ланд, Мэллори Бехтель, Джейк Браун, Харрисон Нелл, Брианн Рейчел

Перевод: Дублированный | [Лицензия]
Субтитры: Русские (полные), Английские (полные)
Реклама: Отсутствует

Описание: После смерти матери Энни Грэхем в её ранее спокойном доме начинает твориться нечто необъяснимое. Теперь под угрозой жизнь её близких. С каждым днём открываются новые ужасающие секреты их семьи. Энни осознаёт, что эти кошмары берут своё начало в далёком прошлом. Сможет ли она найти ключ к тайне зловещего проклятия, которое передаётся из поколения в поколение…

Качество: BDRip-AVC | BDRemux | Реинкарнация / Hereditary (2018) BDRemux 1080p от ExKinoRay
Продолжительность: 02:07:26

Формат: MKV
Видео кодек: MPEG-4 AVC
Аудио кодек: AC3
Видео: 1024x512 (2:1), 23,976 fps, x264 ~2 012 kbps avg, 0.160 bit/pixel
Аудио #1: 48 kHz, AC3 Dolby Digital, 3/2 (L,C,R,l,r) + LFE ch, ~448.00 kbps avg | RUS (Лицензия)
Аудио #2: 48 kHz, AC3 Dolby Digital, 3/2 (L,C,R,l,r) + LFE ch, ~448.00 kbps avg | ENG

Дата премьеры (мир): 21 января 2018
Дата премьеры (РФ): 7 июня 2018, «Парадиз»

Релиз: Rip by:


[+] MediaInfo

Общее
Уникальный идентификатор                 : 288722582967014979966507692423005145075 (0xD935F2628383CE413D5ED6FE479907F3)
Полное имя                               : F:OlLanDGroupHereditary.2018.BDRip(AVC).OlLanDGroup.mkv
Формат                                   : Matroska
Версия формата                           : Version 4 / Version 2
Размер файла                             : 2,59 Гбайт
Продолжительность                        : 2 ч. 7 м.
Общий поток                              : 2910 Кбит/сек
Название фильма                          : Hereditary.2018   #TorpedoUK#
Дата кодирования                         : UTC 2019-03-12 13:55:34
Программа кодирования                    : mkvmerge v29.0.0 ('Like It Or Not') 64-bit
Библиотека кодирования                   : libebml v1.3.6 + libmatroska v1.4.9

Видео
Идентификатор                            : 1
Формат                                   : AVC
Формат/Информация                        : Advanced Video Codec
Профиль формата                          : High@L4.1
Параметр CABAC формата                   : Да
Параметр ReFrames формата                : 10 кадров
Идентификатор кодека                     : V_MPEG4/ISO/AVC
Продолжительность                        : 2 ч. 7 м.
Битрейт                                  : 2012 Кбит/сек
Ширина                                   : 1024 пикселя
Высота                                   : 512 пикселей
Соотношение сторон                       : 2,000
Режим частоты кадров                     : Постоянный
Частота кадров                           : 23,976 (24000/1001) кадра/сек
Цветовое пространство                    : YUV
Субдискретизация насыщенности            : 4:2:0
Битовая глубина                          : 8 бит
Тип развёртки                            : Прогрессивная
Бит/(Пиксели*Кадры)                      : 0.160
Размер потока                            : 1,79 Гбайт (69%)
Библиотека кодирования                   : x264 core 146 r2538 121396c
Настройки программы                      : cabac=1 / ref=10 / deblock=1:-3:-3 / analyse=0x3:0x113 / me=umh / subme=11 / psy=1 / psy_rd=0.97:0.05 / mixed_ref=1 / me_range=48 / chroma_me=1 / trellis=2 / 8x8dct=1 / cqm=0 / deadzone=21,11 / fast_pskip=1 / chroma_qp_offset=-3 / threads=6 / lookahead_threads=1 / sliced_threads=0 / nr=0 / decimate=1 / interlaced=0 / bluray_compat=0 / constrained_intra=0 / bframes=10 / b_pyramid=2 / b_adapt=2 / b_bias=0 / direct=3 / weightb=1 / open_gop=0 / weightp=2 / keyint=240 / keyint_min=23 / scenecut=40 / intra_refresh=0 / rc_lookahead=40 / rc=2pass / mbtree=1 / bitrate=2012 / ratetol=1.0 / qcomp=0.60 / qpmin=0 / qpmax=69 / qpstep=4 / cplxblur=20.0 / qblur=0.5 / vbv_maxrate=50000 / vbv_bufsize=62500 / nal_hrd=none / filler=0 / ip_ratio=1.40 / aq=1:1.00
Язык                                     : English
Default                                  : Да
Forced                                   : Нет

Аудио #1
Идентификатор                            : 2
Формат                                   : AC-3
Формат/Информация                        : Audio Coding 3
Расширение режима                        : CM (complete main)
Параметр Endianness формата              : Big
Идентификатор кодека                     : A_AC3
Продолжительность                        : 2 ч. 7 м.
Вид битрейта                             : Постоянный
Битрейт                                  : 448 Кбит/сек
Каналы                                   : 6 каналов
Расположение каналов                     : Front: L C R, Side: L R, LFE
Частота                                  : 48,0 КГц
Частота кадров                           : 31,250 кадров/сек (1536 spf)
Битовая глубина                          : 16 бит
Метод сжатия                             : С потерями
Размер потока                            : 408 Мбайт (15%)
Заголовок                                : DUB [License]
Язык                                     : Russian
Default                                  : Да
Forced                                   : Нет

Аудио #2
Идентификатор                            : 3
Формат                                   : AC-3
Формат/Информация                        : Audio Coding 3
Расширение режима                        : CM (complete main)
Параметр Endianness формата              : Big
Идентификатор кодека                     : A_AC3
Продолжительность                        : 2 ч. 7 м.
Вид битрейта                             : Постоянный
Битрейт                                  : 448 Кбит/сек
Каналы                                   : 6 каналов
Расположение каналов                     : Front: L C R, Side: L R, LFE
Частота                                  : 48,0 КГц
Частота кадров                           : 31,250 кадров/сек (1536 spf)
Битовая глубина                          : 16 бит
Метод сжатия                             : С потерями
Размер потока                            : 408 Мбайт (15%)
Заголовок                                : Original
Язык                                     : English
Default                                  : Нет
Forced                                   : Нет

Текст #1
Идентификатор                            : 4
Формат                                   : UTF-8
Идентификатор кодека                     : S_TEXT/UTF8
Идентификатор кодека/Информация          : UTF-8 Plain Text
Продолжительность                        : 2 ч. 0 м.
Битрейт                                  : 56 бит/сек
Count of elements                        : 1015
Размер потока                            : 50,0 Кбайт (0%)
Заголовок                                : Full
Язык                                     : Russian
Default                                  : Нет
Forced                                   : Нет

Текст #2
Идентификатор                            : 5
Формат                                   : UTF-8
Идентификатор кодека                     : S_TEXT/UTF8
Идентификатор кодека/Информация          : UTF-8 Plain Text
Продолжительность                        : 2 ч. 0 м.
Битрейт                                  : 33 бит/сек
Count of elements                        : 1014
Размер потока                            : 29,4 Кбайт (0%)
Заголовок                                : Full
Язык                                     : English
Default                                  : Нет
Forced                                   : Нет

Меню
00:00:00.000                             : en:00:00:00.000
00:06:03.321                             : en:00:06:03.321
00:13:34.147                             : en:00:13:34.147
00:23:01.130                             : en:00:23:01.130
00:26:31.173                             : en:00:26:31.173
00:34:57.762                             : en:00:34:57.762
00:40:56.496                             : en:00:40:56.496
00:47:23.090                             : en:00:47:23.090
00:54:34.396                             : en:00:54:34.396
01:04:02.881                             : en:01:04:02.881
01:08:55.631                             : en:01:08:55.631
01:19:35.854                             : en:01:19:35.854
01:25:09.396                             : en:01:25:09.396
01:32:50.315                             : en:01:32:50.315
01:40:01.412                             : en:01:40:01.412
01:53:21.378                             : en:01:53:21.378



Скриншоты:
[+] Всего файлов в раздаче - 1:
Hereditary.2018.BDRip(AVC).OlLanDGroup.mkv2.59 GB

Показать еще раздачи по запросу реинкарнация:
2019-03-13 U Реинкарнация / Hereditary (2018) BDRip 720p от селезень | Лицензия 5.89 GB ↑ 64 ↓ 34
2019-03-13 U Реинкарнация / Hereditary (2018) BDRip 1080p от селезень | Лицензия 12.86 GB ↑ 82 ↓ 42
2019-03-12 U Реинкарнация / Hereditary (2018) BDRip от MegaPeer | Лицензия 1.46 GB ↑ 462 ↓ 17
2019-01-22 U Монгол Шуудан - Паровоз анархия реинкарнация (2019) MP3 109.39 MB ↑ 159 ↓ 30
2018-08-30 U Реинкарнация / Hereditary (2018) BDRemux 1080p от ExKinoRay | iTunes 34.40 GB ↑ 31 ↓ 18
2018-08-29 U Реинкарнация / Hereditary (2018) BDRip от MegaPeer | iTunes 1.46 GB ↑ 143 ↓ 53
2018-08-22 U Реинкарнация / Hereditary (2018) WEB-DLRip от Portablius | iTunes 746.48 MB ↑ 242 ↓ 46

Отзывы
Зарегистрируйтесь чтобы добавить комментарий.
Обратная связь
Copyleft ©