↑↓Torrent.by
Поиск
Логин: Регистрация
Пароль: Восстановить пароль
Загрузка...

Исчезновение / The Vanishing (2018) BDRip-AVC от OlLanDGroup | P

Скачать ischeznovenie-the-vanishing-2018-bdrip-avc-ot-ollandgroup-p.torrent
U Магнитная ссылка Размер: 1.99 GB Раздают: 110 Качают: 27 Добавлен: 2019-03-12 15:31:21
Исчезновение / The Vanishing (2018) BDRip-AVC от OlLanDGroup | P

Исчезновение / The Vanishing
«What's left when the light goes out?»

Год выпуска: 2018
Страна: Великобритания
Производство: G-BASE
Жанр:  Триллер, мистика, драма

Режиссёр: Кристоффер Нюхольм
В ролях: Джерард Батлер, Питер Муллан, Оулавюр Дарри Оулафссон, Гэри Льюис, Сёрен Маллинг, Коннор Суинделлс, Эмма Кинг, Родерик Гилкинсон, Кен Друри, Джон Тейлор

Перевод: Профессиональный многоголосый | [СВ-Студия]
Субтитры: Английские (полные, SDH)
Реклама: Отсутствует

Присутствует ненормативная лексика!

Описание: Смотрители маяка Джеймс, Томас и Дональд были немногословными, крепкими и неприхотливыми ребятами. В один прекрасный день они нашли на острове клад — ящик золота, немного подумали, и решили его поделить. Они забыли известную истину — у золота всегда найдется хозяин — и это редко бывают тихие и застенчивые люди. А спустя несколько дней на острове не осталось никого… Фильм основан на реальной истории бесследного исчезновения трех смотрителей маяка на островах Фланнан в 1900 году. Остановившиеся часы, ни следов крови, ни посиневших и разбухших трупов… Тайна исчезновения этих людей до сих пор не раскрыта…

Качество: BDRip 1080p | BDRemux | The.Vanishing.2018.1080p.BluRay.REMUX.AVC.DTS-HD.MA.5.1-FGT
Продолжительность: 01:46:48

Формат: MKV
Видео кодек: MPEG-4 AVC
Аудио кодек: AC3
Видео: 1024x428 (2.40:1), 23,976 fps, x264 ~1 794 kbps avg, 0.171 bit/pixel
Аудио #1: 48 kHz, AC3 Dolby Digital, 3/2 (L,C,R,l,r) + LFE ch, ~384.00 kbps avg | RUS (СВ-Студия)
Аудио #2: 48 kHz, AC3 Dolby Digital, 3/2 (L,C,R,l,r) + LFE ch, ~448.00 kbps avg | ENG

Дата премьеры (мир): 11 октября 2018
Дата премьеры (РФ): 21 февраля 2019, «Престиж Кино»
Цифровой релиз:

Релиз: Rip by:


[+] MediaInfo

Общее
Уникальный идентификатор                 : 242816881724589390335613083076905042669 (0xB6ACD491EC59EC40F57D677A695682ED)
Полное имя                               : F:OlLanDGroupThe.Vanishing.2018.BDRip(AVC).OlLanDGroup.mkv
Формат                                   : Matroska
Версия формата                           : Version 4 / Version 2
Размер файла                             : 1,99 Гбайт
Продолжительность                        : 1 ч. 46 м.
Общий поток                              : 2670 Кбит/сек
Название фильма                          : The.Vanishing.2018   #TorpedoUK#
Дата кодирования                         : UTC 2019-03-12 02:36:54
Программа кодирования                    : mkvmerge v29.0.0 ('Like It Or Not') 64-bit
Библиотека кодирования                   : libebml v1.3.6 + libmatroska v1.4.9

Видео
Идентификатор                            : 1
Формат                                   : AVC
Формат/Информация                        : Advanced Video Codec
Профиль формата                          : High@L4.1
Параметр CABAC формата                   : Да
Параметр ReFrames формата                : 10 кадров
Идентификатор кодека                     : V_MPEG4/ISO/AVC
Продолжительность                        : 1 ч. 46 м.
Битрейт                                  : 1839 Кбит/сек
Ширина                                   : 1024 пикселя
Высота                                   : 428 пикселей
Соотношение сторон                       : 2,40:1
Режим частоты кадров                     : Постоянный
Частота кадров                           : 24,000 кадра/сек
Цветовое пространство                    : YUV
Субдискретизация насыщенности            : 4:2:0
Битовая глубина                          : 8 бит
Тип развёртки                            : Прогрессивная
Бит/(Пиксели*Кадры)                      : 0.175
Размер потока                            : 1,37 Гбайт (69%)
Библиотека кодирования                   : x264 core 146 r2538 121396c
Настройки программы                      : cabac=1 / ref=10 / deblock=1:-3:-3 / analyse=0x3:0x113 / me=umh / subme=11 / psy=1 / psy_rd=0.99:0.04 / mixed_ref=1 / me_range=48 / chroma_me=1 / trellis=2 / 8x8dct=1 / cqm=0 / deadzone=21,11 / fast_pskip=1 / chroma_qp_offset=-3 / threads=6 / lookahead_threads=1 / sliced_threads=0 / nr=0 / decimate=1 / interlaced=0 / bluray_compat=0 / constrained_intra=0 / bframes=11 / b_pyramid=2 / b_adapt=2 / b_bias=0 / direct=3 / weightb=1 / open_gop=0 / weightp=2 / keyint=240 / keyint_min=24 / scenecut=40 / intra_refresh=0 / rc_lookahead=40 / rc=2pass / mbtree=0 / bitrate=1839 / ratetol=1.0 / qcomp=0.60 / qpmin=0 / qpmax=69 / qpstep=4 / cplxblur=20.0 / qblur=0.5 / vbv_maxrate=50000 / vbv_bufsize=62500 / nal_hrd=none / filler=0 / ip_ratio=1.40 / pb_ratio=1.30 / aq=1:1.00
Язык                                     : English
Default                                  : Да
Forced                                   : Нет

Аудио #1
Идентификатор                            : 2
Формат                                   : AC-3
Формат/Информация                        : Audio Coding 3
Расширение режима                        : CM (complete main)
Параметр Endianness формата              : Big
Идентификатор кодека                     : A_AC3
Продолжительность                        : 1 ч. 46 м.
Вид битрейта                             : Постоянный
Битрейт                                  : 384 Кбит/сек
Каналы                                   : 6 каналов
Расположение каналов                     : Front: L C R, Side: L R, LFE
Частота                                  : 48,0 КГц
Частота кадров                           : 31,250 кадров/сек (1536 spf)
Битовая глубина                          : 16 бит
Метод сжатия                             : С потерями
Размер потока                            : 293 Мбайт (14%)
Заголовок                                : MVO [CВ-Студия]
Язык                                     : Russian
Default                                  : Да
Forced                                   : Нет

Аудио #2
Идентификатор                            : 3
Формат                                   : AC-3
Формат/Информация                        : Audio Coding 3
Расширение режима                        : CM (complete main)
Параметр Endianness формата              : Big
Идентификатор кодека                     : A_AC3
Продолжительность                        : 1 ч. 46 м.
Вид битрейта                             : Постоянный
Битрейт                                  : 448 Кбит/сек
Каналы                                   : 6 каналов
Расположение каналов                     : Front: L C R, Side: L R, LFE
Частота                                  : 48,0 КГц
Частота кадров                           : 31,250 кадров/сек (1536 spf)
Битовая глубина                          : 16 бит
Метод сжатия                             : С потерями
Размер потока                            : 342 Мбайт (17%)
Заголовок                                : [Original]
Язык                                     : English
Default                                  : Нет
Forced                                   : Нет

Текст #1
Идентификатор                            : 4
Формат                                   : UTF-8
Идентификатор кодека                     : S_TEXT/UTF8
Идентификатор кодека/Информация          : UTF-8 Plain Text
Продолжительность                        : 1 ч. 40 м.
Битрейт                                  : 24 бит/сек
Count of elements                        : 796
Размер потока                            : 18,2 Кбайт (0%)
Заголовок                                : Full
Язык                                     : English
Default                                  : Нет
Forced                                   : Нет

Текст #2
Идентификатор                            : 5
Формат                                   : UTF-8
Идентификатор кодека                     : S_TEXT/UTF8
Идентификатор кодека/Информация          : UTF-8 Plain Text
Продолжительность                        : 1 ч. 40 м.
Битрейт                                  : 27 бит/сек
Count of elements                        : 893
Размер потока                            : 20,4 Кбайт (0%)
Заголовок                                : SDH
Язык                                     : English
Default                                  : Нет
Forced                                   : Нет

Меню
00:00:00.000                             : de:Chapter 01
00:11:27.333                             : de:Chapter 02
00:19:55.208                             : de:Chapter 03
00:31:56.875                             : de:Chapter 04
00:43:13.000                             : de:Chapter 05
00:55:16.666                             : de:Chapter 06
01:05:03.541                             : de:Chapter 07
01:14:36.708                             : de:Chapter 08
01:19:02.375                             : de:Chapter 09
01:31:38.625                             : de:Chapter 10
01:35:12.083                             : de:Chapter 11
01:40:22.041                             : de:Chapter 12



Скриншоты:
[+] Всего файлов в раздаче - 1:
The.Vanishing.2018.BDRip(AVC).OlLanDGroup.mkv1.99 GB

Показать еще раздачи по запросу исчезновение:
2019-03-23 U Исчезновение / The Vanishing (2018) BDRip 720p | US Transfer | СВ-Студия 5.66 GB ↑ 102 ↓ 61
2019-03-20 U Исчезновение / The Vanishing (2018) BDRip-AVC от OlLanDGroup | US Transfer | СВ-Студия 2.00 GB ↑ 71 ↓ 30
2019-03-20 U Исчезновение / The Vanishing (2018) BDRip от ExKinoRay | P 1.41 GB ↑ 72 ↓ 13
2019-03-19 U Исчезновение / The Vanishing (2018) BDRip от MegaPeer | US Transfer | СВ-Студия 1.46 GB ↑ 57 ↓ 120
2019-03-14 U Исчезновение / The Vanishing (2018) BDRip 720p | СВ Студия 5.66 GB ↑ 60 ↓ 32
2019-03-11 U Исчезновение / The Vanishing (2018) BDRip от MegaPeer | СВ-Студия 1.41 GB ↑ 122 ↓ 48
2019-03-10 U Исчезновение / The Vanishing (2018) BDRip от ExKinoRay | P 1.41 GB ↑ 53 ↓ 443

Отзывы
Зарегистрируйтесь чтобы добавить комментарий.
Обратная связь
Copyleft ©