↑↓Torrent.by
Поиск
Логин: Регистрация
Пароль: Восстановить пароль
Загрузка...

Чёрная магия / Santet (2018) WEB-DL 1080p | HDRezka Studio

Скачать chernaya-magiya-santet-2018-web-dl-1080p-hdrezka-studio.torrent
U Магнитная ссылка Размер: 3.98 GB Раздают: 69 Качают: 29 Добавлен: 2019-03-12 15:31:36
Чёрная магия / Santet (2018) WEB-DL 1080p | HDRezka Studio

Название: Чёрная магия
Оригинальное название: Santet
Год выпуска: 2018
Жанр:  Ужасы
Режиссер: Хелфи Кардит
В ролях: Келли Брук, Джаз Окампо, Аю Диа Паша, Рэй Сахетапи

О фильме: Ренди вместе со своей супругой Лорой и двумя детьми возвращается в отчий дом. Здесь совсем недавно его отец Дхарма наложил на себя руки, и теперь любящий сын беспокоится о своей матери, а она ведет себя после произошедшего с ее мужем неадекватно. В женщину словно вселился злой дух, она стала одержима черной магией. Она ведет себя, как сумасшедшая, и явно не хочет видеть в своем доме своего сына с невесткой и внуками. Все это приводит Ренди в ужас и смятение.

Страна: Индонезия
Продолжительность: 01:25:39
Перевод: Профессиональный (многоголосый закадровый) | HDRezka Studio

Файл
Качество: WEB-DL 1080p
Видео: MPEG-4 AVC, 5811 Кбит/с, 1920x800, 23.976 Кадр/с
Аудио 1: Русский: AC3, 2 ch, 192 Кбит/с - HDRezka Studio
Аудио 2: Английский: E-AC3, 6 ch, 640 Кбит/с - Original
Субтитры: Английские

Релиз:


[+] MediaInfo
General
Unique ID                   : 159051309904492973618081012632333601550 (0x77A82B04ECEFEF81707920C27E184B0E)
Complete name               :F:Santet.2018.1080p.AMZN.webdL.108Op.werecut.PROD.mkv
Format                      : Matroska
Format version              : Version 4
File size                   : 3.98 GiB
Duration                    : 1 h 25 min
Overall bit rate            : 6 645 kb/s
Movie name                  : Santet 2018 OT werecut PROD.
Encoded date                : UTC 2019-03-10 18:32:20
Writing application         : mkvmerge v28.0.0 ('Voice In My Head') 64-bit
Writing library             : libebml v1.3.6 + libmatroska v1.4.9

Video
ID                          : 1
Format                      : AVC
Format/Info                 : Advanced Video Codec
Format profile              : High@L4
Format settings             : CABAC / 4 Ref Frames
Format settings, CABAC      : Yes
Format settings, ReFrames   : 4 frames
Codec ID                    : V_MPEG4/ISO/AVC
Duration                    : 1 h 25 min
Bit rate mode               : Constant
Bit rate                    : 5 811 kb/s
Nominal bit rate            : 10 000 kb/s
Width                       : 1 920 pixels
Height                      : 800 pixels
Display aspect ratio        : 2.40:1
Frame rate mode             : Constant
Frame rate                  : 23.976 (24000/1001) FPS
Color space                 : YUV
Chroma subsampling          : 4:2:0
Bit depth                   : 8 bits
Scan type                   : Progressive
Bits/(Pixel*Frame)          : 0.158
Stream size                 : 3.48 GiB (87%)
Language                    : English
Default                     : Yes
Forced                      : No
Color range                 : Limited
Color primaries             : BT.709
Transfer characteristics    : BT.709
Matrix coefficients         : BT.709

Audio #1
ID                          : 2
Format                      : AC-3
Format/Info                 : Audio Coding 3
Commercial name             : Dolby Digital
Codec ID                    : A_AC3
Duration                    : 1 h 25 min
Bit rate mode               : Constant
Bit rate                    : 192 kb/s
Channel(s)                  : 2 channels
Channel layout              : L R
Sampling rate               : 48.0 kHz
Frame rate                  : 31.250 FPS (1536 SPF)
Bit depth                   : 16 bits
Compression mode            : Lossy
Stream size                 : 118 MiB (3%)
Title                       : HDREZKA STUDIO
Language                    : Russian
Service kind                : Complete Main
Default                     : Yes
Forced                      : No

Audio #2
ID                          : 3
Format                      : E-AC-3
Format/Info                 : Enhanced AC-3
Commercial name             : Dolby Digital Plus
Codec ID                    : A_EAC3
Duration                    : 1 h 25 min
Bit rate mode               : Constant
Bit rate                    : 640 kb/s
Channel(s)                  : 6 channels
Channel layout              : L R C LFE Ls Rs
Sampling rate               : 48.0 kHz
Frame rate                  : 31.250 FPS (1536 SPF)
Compression mode            : Lossy
Stream size                 : 392 MiB (10%)
Language                    : English
Service kind                : Complete Main
Default                     : No
Forced                      : No

Text
ID                          : 4
Format                      : UTF-8
Codec ID                    : S_TEXT/UTF8
Codec ID/Info               : UTF-8 Plain Text
Duration                    : 1 h 24 min
Bit rate                    : 31 b/s
Count of elements           : 917
Stream size                 : 19.1 KiB (0%)
Title                       : English [SDH]
Language                    : English
Default                     : No
Forced                      : No



Скриншоты:
[+] Всего файлов в раздаче - 1:
Santet.2018.1080p.AMZN.webdL.108Op.werecut.PROD.mkv3.98 GB

Отзывы
Зарегистрируйтесь чтобы добавить комментарий.
Обратная связь
Copyleft ©