↑↓Torrent.by
Поиск
Логин: Регистрация
Пароль: Восстановить пароль
Загрузка...

Отрыв (2018) WEB-DLRip от OlLanDGroup | iTunes

Скачать otryv-2018-web-dlrip-ot-ollandgroup-itunes.torrent
U Магнитная ссылка Размер: 743.88 MB Раздают: 200 Качают: 17 Добавлен: 2019-03-13 06:39:59
Отрыв (2018) WEB-DLRip от OlLanDGroup | iTunes

Информация о фильме
Название: Отрыв
Год выпуска: 2018
Жанр:  Триллер
Режиссер: Тигран Саакян
В ролях: Ирина Антоненко, Денис Косяков, Ингрид Олеринская, Михаил Филиппов, Андрей Назимов

О фильме:
Компания друзей поднимается в горы, чтобы незабываемо встретить новогоднюю ночь на вершине горы. Ребята уже предвкушают, как под бой курантов и взрывы салютов они весело съедут вниз. Но приключение оборачивается настоящим кошмаром, когда в самый разгар праздника хлипкий вагончик, привёзший их ввысь, застревает над пропастью.

Страна: Россия
Студия: Аттракцион, Кинокомпания CTB
Продолжительность: 01:21:32
Язык: Русский | iTunes

Файл
Формат: AVI
Качество: WEB-DLRip
Видео: 720x288 (2.50:1), 25 fps, XviD build 73 ~1138 kbps avg, 0.22 bit/pixel
Звук: 48 kHz, MPEG Layer 3, 2 ch, ~128.00 kbps avg
Субтитры: Нет

Релиз:

Семпл




[+] MediaInfo:
General
Complete name                  : D:Мои рипыBreakaway.WEB-DLRip.OlLanDGroup.avi
Format                         : AVI
Format/Info                    : Audio Video Interleave
File size                      : 744 MiB
Duration                       : 1 h 21 min
Overall bit rate               : 1 275 kb/s
Writing application            : VirtualDubMod 1.5.10.3 | www.virtualdub-fr.org || (build 2550/release)
Writing library                : VirtualDubMod build 2550/release

Video
ID                             : 0
Format                         : MPEG-4 Visual
Format profile                 : Advanced Simple@L5
Format settings                : BVOP1 / Custom Matrix
Format settings, BVOP          : 1
Format settings, QPel          : No
Format settings, GMC           : No warppoints
Format settings, Matrix        : Custom
Codec ID                       : XVID
Codec ID/Hint                  : XviD
Duration                       : 1 h 21 min
Bit rate                       : 1 138 kb/s
Width                          : 720 pixels
Height                         : 288 pixels
Display aspect ratio           : 2.500
Frame rate                     : 25.000 FPS
Color space                    : YUV
Chroma subsampling             : 4:2:0
Bit depth                      : 8 bits
Scan type                      : Progressive
Compression mode               : Lossy
Bits/(Pixel*Frame)             : 0.219
Stream size                    : 664 MiB (89%)
Writing library                : XviD 73

Audio
ID                             : 1
Format                         : MPEG Audio
Format version                 : Version 1
Format profile                 : Layer 3
Codec ID                       : 55
Codec ID/Hint                  : MP3
Duration                       : 1 h 21 min
Bit rate mode                  : Constant
Bit rate                       : 128 kb/s
Channel(s)                     : 2 channels
Sampling rate                  : 48.0 kHz
Frame rate                     : 41.667 FPS (1152 SPF)
Compression mode               : Lossy
Stream size                    : 74.7 MiB (10%)
Alignment                      : Aligned on interleaves
Interleave, duration           : 40  ms (1.00 video frame)
Interleave, preload duration   : 504  ms
Writing library                : LAME3.99r
Encoding settings              : -m s -V 4 -q 2 -lowpass 17 -b 128



Скриншоты:
[+] Всего файлов в раздаче - 1:
Breakaway.WEB-DLRip.OlLanDGroup.avi743.88 MB

Показать еще раздачи по запросу отрыв:
2019-03-12 U Отрыв (2018) WEB-DLRip от MegaPeer | iTunes 1.37 GB ↑ 693 ↓ 395
2019-03-12 U Отрыв (2018) WEB-DL 1080p | iTunes 2.85 GB ↑ 63 ↓ 46
2017-12-27 U Сборник - Русский новогодний отрыв (2017) MP3 736.50 MB ↑ 159 ↓ 82
2017-01-16 U VA - Полный отрыв. Зимние хиты 3 (2017) MP3 671.34 MB ↑ 166 ↓ 67
2016-03-04 U VA - Зажигательный музыкальный отрыв (2016) MP3 1.24 GB ↑ 12485 ↓ 23
2016-03-02 U Новогодний отрыв / Incidencias (2015) WEB-DLRip-AVC | iTunes 1.46 GB ↑ 61 ↓ 18
2016-03-02 U Новогодний отрыв / Incidencias (2015) WEB-DL 720p | iTunes 1К2.64 GB ↑ 80 ↓ 11

Отзывы
Зарегистрируйтесь чтобы добавить комментарий.
Обратная связь
Copyleft ©