↑↓Torrent.by
Поиск
Логин: Регистрация
Пароль: Восстановить пароль
Загрузка...

Ким Пять-с-плюсом / Kim Possible (2019) WEB-DLRip | HDRezka Studio

Скачать kim-pyat-s-plyusom-possible-2019-web-dlrip-hdrezka-studio.torrent
U Магнитная ссылка Размер: 1.45 GB Раздают: 72 Качают: 20 Добавлен: 2019-03-13 06:40:11
Ким Пять-с-плюсом / Kim Possible (2019) WEB-DLRip | HDRezka Studio

Название: Ким Пять-с-плюсом
Оригинальное название: Kim Possible
Год выпуска: 2019
Жанр:  Боевик, комедия, приключения
Режиссер: Зэк Липовски / Zach Lipovsky, Адам Б. Стейн / Adam B. Stein
В ролях: Сэди Стэнли, Шон Джамброун, Тодд Стэшвик, Тейлор Ортега, Элисон Хэннигэн, Сиара Уилсон, Иссак Райан Браун, Коннор Филдинг, Оуэн Филдинг, Конни Рэй

О фильме: Ким – типичная старшеклассница. Вот только это на первый взгляд она обычная и ничем не примечательная ученица средней школы. На самом же деле Ким настоящий супергерой. Днём она учится, а с приходом ночи девушка превращается в супергероя, спасающего мир от злодеев всех мастей.

Страна: США
Продолжительность: 01:26:00
Перевод: Профессиональный (многоголосый закадровый) | HDRezka Studio

Файл
Качество: WEB-DLRip
Формат: AVI
Видео: 704x400 (1.76:1), 23.976 fps, XviD build 73 ~2217 kbps avg, 0.33 bit/pixel
Аудио: 48 kHz, AC3 Dolby Digital, 2/0 (L,R) ch, ~192 kbps
Субтитры: Нет


[+] MediaInfo
Формат                                   : AVI
Формат/Информация                        : Audio Video Interleave
Размер файла                             : 1,45 Гбайт
Продолжительность                        : 1 ч. 26 м.
Общий поток                              : 2418 Кбит/сек
Программа кодирования                    : VirtualDubMod 1.5.10.3 | www.virtualdub-fr.org || (build 2550/release)
Библиотека кодирования                   : VirtualDubMod build 2550/release

Видео
Идентификатор                            : 0
Формат                                   : MPEG-4 Visual
Профиль формата                          : Advanced Simple@L5
Настройки формата                        : BVOP1 / Custom Matrix
Параметр BVOP формата                    : 1
Параметр QPel формата                    : Нет
Параметр GMC формата                     : Без точки перехода
Параметр матрицы формата                 : Выборочная
Идентификатор кодека                     : XVID
Идентификатор кодека/Подсказка           : XviD
Продолжительность                        : 1 ч. 26 м.
Битрейт                                  : 2217 Кбит/сек
Ширина                                   : 704 пикселя
Высота                                   : 400 пикселей
Соотношение сторон                       : 16:9
Частота кадров                           : 23,976 (24000/1001) кадра/сек
Цветовое пространство                    : YUV
Субдискретизация насыщенности            : 4:2:0
Битовая глубина                          : 8 бит
Тип развёртки                            : Прогрессивная
Метод сжатия                             : С потерями
Бит/(Пиксели*Кадры)                      : 0.328
Размер потока                            : 1,33 Гбайт (92%)
Библиотека кодирования                   : XviD 73

Аудио
Идентификатор                            : 1
Формат                                   : AC-3
Формат/Информация                        : Audio Coding 3
Коммерческое название                    : Dolby Digital
Идентификатор кодека                     : 2000
Продолжительность                        : 1 ч. 26 м.
Вид битрейта                             : Постоянный
Битрейт                                  : 192 Кбит/сек
Каналы                                   : 2 канала
Channel layout                           : L R
Частота                                  : 48,0 КГц
Частота кадров                           : 31,250 кадров/сек (1536 SPF)
Битовая глубина                          : 16 бит
Метод сжатия                             : С потерями
Размер потока                            : 118 Мбайт (8%)
Выравнивание                             : Разделение по промежуткам
Продолжительность промежутка             : 42  мс. (1,00 видеокадр)
Время предзагрузки промежутка            : 500  мс.



Скриншоты:
[+] Всего файлов в раздаче - 1:
Ким Пять-с-плюсом_2019_WEB-DLRip.avi1.45 GB

Показать еще раздачи по запросу пять:
2019-03-03 U Пять минут тишины. Возвращение [02х01-24 из 24] (2018) WEBRip-AVC от Files-x 17.97 GB ↑ 40 ↓ 62
2019-03-02 U Пять минут тишины. Возвращение [S02] (2018) WEBRip от GeneralFilm 8.74 GB ↑ 127 ↓ 218
2019-03-02 U Пять минут тишины. Возвращение [S02] (2018) WEBRip от Files-x 14.14 GB ↑ 79 ↓ 280
2019-03-01 U Пять минут тишины. Возвращение [02х01-20 из 24] (2018) WEBRip от GeneralFilm 7.28 GB ↑ 89 ↓ 154
2019-02-28 U Пять минут тишины. Возвращение [02х01-18 из 24] (2018) WEBRip от GeneralFilm 6.55 GB ↑ 62 ↓ 150
2019-02-27 U Пять минут тишины. Возвращение [02х01-16 из 24] (2018) WEBRip от Files-x 9.46 GB ↑ 72 ↓ 157
2019-02-26 U Пять минут тишины. Возвращение [02х01-14 из 24] (2018) WEBRip от GeneralFilm 5.10 GB ↑ 65 ↓ 71

Отзывы
Зарегистрируйтесь чтобы добавить комментарий.
Обратная связь
Copyleft ©