↑↓Torrent.by
Поиск
Логин: Регистрация
Пароль: Восстановить пароль
Загрузка...

Реинкарнация / Hereditary (2018) BDRip 720p от селезень | Лицензия

Скачать reinkarnaciya-hereditary-2018-bdrip-720p-ot-selezen-licenziya.torrent
U Магнитная ссылка Размер: 5.89 GB Раздают: 68 Качают: 34 Добавлен: 2019-03-13 06:40:46
Реинкарнация / Hereditary (2018) BDRip 720p от селезень | Лицензия

Название: Реинкарнация
Оригинальное название: Hereditary
Год выхода: 2018
Жанр: Ужасы, триллер, драма, детектив
Режиссер: Ари Астер
В ролях: Алекс Вулф, Гэбриел Бирн, Тони Коллетт, Милли Шапиро, Кристи Саммерхэйс, Морган Ланд, Мэллори Бехтель, Джейк Браун, Харрисон Нелл, Брианн Рейчел

О фильме: После смерти матери Энни Грэхем в её ранее спокойном доме начинает твориться нечто необъяснимое. Теперь под угрозой жизнь её близких. С каждым днём открываются новые ужасающие секреты их семьи. Энни осознаёт, что эти кошмары берут своё начало в далёком прошлом. Сможет ли она найти ключ к тайне зловещего проклятия, которое передаётся из поколения в поколение…

Страна: США
Студия: Palm-Star Entertainment
Продолжительность: 02:07:25
Перевод: Дублированный | Лицензия R5

Качество: BDRip 720p
Видео: MPEG-4 AVC, 1280x640, 5523 Kbit/s, 23.976 fps
Звук:
Аудио #01: 48 kHz, AC3, 5.1, 448 Kbps | Дублированный | RUS |
Аудио #02: 48 kHz, AC3, 5.1, 640 Kbps | Оригинал |  ENG |
Субтитры: Русские (Full), английские

Релиз:


[+] MI
General
Unique ID                   : 210906980688051964849395319195782453962 (0x9EAB34FB3F84670B49ABA3E6D5A59ACA)
Complete name               : D:Video111Hereditary.2018.Lic.BDRip.720p.seleZen.mkv
Format                      : Matroska
Format version              : Version 4
File size                   : 5.89 GiB
Duration                    : 2 h 7 min
Overall bit rate            : 6 613 kb/s
Movie name                  : Hereditary 2018 from селезень
Encoded date                : UTC 2019-03-12 12:56:38
Writing application         : mkvmerge v31.0.0 ('Dolores In A Shoestand') 64-bit
Writing library             : libebml v1.3.6 + libmatroska v1.4.9

Video
ID                          : 1
Format                      : AVC
Format/Info                 : Advanced Video Codec
Format profile              : High@L4.1
Format settings             : CABAC / 10 Ref Frames
Format settings, CABAC      : Yes
Format settings, ReFrames   : 10 frames
Codec ID                    : V_MPEG4/ISO/AVC
Duration                    : 2 h 7 min
Bit rate                    : 5 523 kb/s
Width                       : 1 280 pixels
Height                      : 640 pixels
Display aspect ratio        : 2.000
Frame rate mode             : Constant
Frame rate                  : 23.976 (24000/1001) FPS
Color space                 : YUV
Chroma subsampling          : 4:2:0
Bit depth                   : 8 bits
Scan type                   : Progressive
Bits/(Pixel*Frame)          : 0.281
Stream size                 : 4.92 GiB (84%)
Title                       : playHD
Writing library             : x264 core 155 r2867+82 a249126 t_mod_Custom_2 [8-bit@all X86_64]
Encoding settings           : cabac=1 / ref=10 / deblock=1:-3:-3 / analyse=0x3:0x133 / me=umh / subme=10 / psy=1 / fade_compensate=0.00 / psy_rd=1.00:0.00 / mixed_ref=1 / me_range=32 / chroma_me=1 / trellis=2 / 8x8dct=1 / cqm=0 / deadzone=21,11 / fast_pskip=0 / chroma_qp_offset=-2 / threads=16 / lookahead_threads=2 / sliced_threads=0 / nr=0 / decimate=0 / interlaced=0 / bluray_compat=0 / constrained_intra=0 / fgo=0 / bframes=9 / b_pyramid=2 / b_adapt=2 / b_bias=0 / direct=3 / weightb=1 / open_gop=0 / weightp=2 / keyint=250 / keyint_min=23 / scenecut=40 / intra_refresh=0 / rc=crf / mbtree=0 / crf=15.7000 / qcomp=0.60 / qpmin=0:0:0 / qpmax=69:69:69 / qpstep=4 / ip_ratio=1.30 / pb_ratio=1.20 / aq=3:0.80 / aq-sensitivity=10.00 / aq-factor=1.00:1.00:1.00 / aq2=0 / aq3=0
Language                    : English
Default                     : Yes
Forced                      : No

Audio #1
ID                          : 2
Format                      : AC-3
Format/Info                 : Audio Coding 3
Commercial name             : Dolby Digital
Codec ID                    : A_AC3
Duration                    : 2 h 7 min
Bit rate mode               : Constant
Bit rate                    : 448 kb/s
Channel(s)                  : 6 channels
Channel layout              : L R C LFE Ls Rs
Sampling rate               : 48.0 kHz
Frame rate                  : 31.250 FPS (1536 SPF)
Bit depth                   : 16 bits
Compression mode            : Lossy
Stream size                 : 408 MiB (7%)
Title                       : Dub [License]
Language                    : Russian
Service kind                : Complete Main
Default                     : Yes
Forced                      : Yes

Audio #2
ID                          : 3
Format                      : AC-3
Format/Info                 : Audio Coding 3
Commercial name             : Dolby Digital
Codec ID                    : A_AC3
Duration                    : 2 h 7 min
Bit rate mode               : Constant
Bit rate                    : 640 kb/s
Channel(s)                  : 6 channels
Channel layout              : L R C LFE Ls Rs
Sampling rate               : 48.0 kHz
Frame rate                  : 31.250 FPS (1536 SPF)
Bit depth                   : 16 bits
Compression mode            : Lossy
Stream size                 : 583 MiB (10%)
Title                       : Original
Language                    : English
Service kind                : Complete Main
Default                     : No
Forced                      : No

Text #1
ID                          : 4
Format                      : UTF-8
Codec ID                    : S_TEXT/UTF8
Codec ID/Info               : UTF-8 Plain Text
Duration                    : 2 h 0 min
Bit rate                    : 56 b/s
Count of elements           : 1015
Stream size                 : 50.0 KiB (0%)
Title                       : Full
Language                    : Russian
Default                     : No
Forced                      : No

Text #2
ID                          : 5
Format                      : UTF-8
Codec ID                    : S_TEXT/UTF8
Codec ID/Info               : UTF-8 Plain Text
Duration                    : 2 h 0 min
Bit rate                    : 39 b/s
Count of elements           : 1247
Stream size                 : 34.8 KiB (0%)
Language                    : English
Default                     : No
Forced                      : No

Menu
00:00:00.000                : :00:00:00.000
00:06:03.321                : :00:06:03.321
00:13:34.147                : :00:13:34.147
00:23:01.130                : :00:23:01.130
00:26:31.173                : :00:26:31.173
00:34:57.762                : :00:34:57.762
00:40:56.496                : :00:40:56.496
00:47:23.090                : :00:47:23.090
00:54:34.396                : :00:54:34.396
01:04:02.881                : :01:04:02.881
01:08:55.631                : :01:08:55.631
01:19:35.854                : :01:19:35.854
01:25:09.396                : :01:25:09.396
01:32:50.315                : :01:32:50.315
01:40:01.412                : :01:40:01.412
01:53:21.378                : :01:53:21.378



Скриншоты:
[+] Всего файлов в раздаче - 1:
Hereditary.2018.Lic.BDRip.720p.seleZen.mkv5.89 GB

Показать еще раздачи по запросу реинкарнация:
2019-03-13 U Реинкарнация / Hereditary (2018) BDRip 1080p от селезень | Лицензия 12.86 GB ↑ 82 ↓ 43
2019-03-12 U Реинкарнация / Hereditary (2018) BDRip-AVC от OlLanDGroup | Лицензия 2.59 GB ↑ 44 ↓ 13
2019-03-12 U Реинкарнация / Hereditary (2018) BDRip от MegaPeer | Лицензия 1.46 GB ↑ 487 ↓ 22
2019-01-22 U Монгол Шуудан - Паровоз анархия реинкарнация (2019) MP3 109.39 MB ↑ 159 ↓ 30
2018-08-30 U Реинкарнация / Hereditary (2018) BDRemux 1080p от ExKinoRay | iTunes 34.40 GB ↑ 31 ↓ 18
2018-08-29 U Реинкарнация / Hereditary (2018) BDRip от MegaPeer | iTunes 1.46 GB ↑ 143 ↓ 53
2018-08-22 U Реинкарнация / Hereditary (2018) WEB-DLRip от Portablius | iTunes 746.48 MB ↑ 242 ↓ 46

Отзывы
Зарегистрируйтесь чтобы добавить комментарий.
Обратная связь
Copyleft ©