↑↓Torrent.by
Поиск
Логин: Регистрация
Пароль: Восстановить пароль
Загрузка...

Две королевы / Mary Queen of Scots (2018) BDRip | iTunes

Скачать dve-korolevy-mary-queen-of-scots-2018-bdrip-itunes.torrent
U Магнитная ссылка Размер: 1.46 GB Раздают: 278 Качают: 76 Добавлен: 2019-03-14 06:51:31
Две королевы / Mary Queen of Scots (2018) BDRip | iTunes

Название: Две королевы
Оригинальное название: Mary Queen of Scots
Год выхода: 2018
Жанр: Драма, биография, история
Страна: Великобритания, США
Перевод: Дублированный | iTunes
Продолжительность: 02:03:55
Режиссер: Джози Рурк
В ролях: Сирша Ронан, Марго Робби, Джек Лауден, Джо Элвин, Дэвид Теннант, Гай Пирс, Анджела Бэйн, Ричард Кэнт, Гай Риз, Том Петти и др.

О фильме: 1561 год, после смерти молодого мужа Франциска 18-летняя Мария Стюарт возвращается в Шотландию. Она католичка и по крови имеет право претендовать на престол Англии, чем изрядно нервирует нынешнюю протестантскую королеву Елизавету I. Прислушавшись к советникам, королева отправляет к Марии делегацию, в состав которой входит фаворит Елизаветы граф Роберт Дадли, по мнению большинства, — идеальный кандидат в супруги Марии.

Файл
Формат: AVI
Качество: BDRip | Mary.Queen.of.Scots.2018.1080p.BluRay.REMUX.AVC.DTS-HD.MA.TrueHD.7.1.Atmos-FGT
Видео: Xvid 73, 720x304, ~1287 kbps, 23,976 fps
Звук: русский, AC3, 5.1 ch, 48 kHz, 384 kbps | iTunes
Субтитры: русские ( форс. вшитые), английские (форс. вшитые на франц. речь)

Рип и релиз от:


[+] MI
General
Полное имя                               : F:TorrentMaryQueenofScotsBDRip.avi
Формат                                   : AVI
Формат/Информация                        : Audio Video Interleave
Профиль формата                          : OpenDML
Размер файла                             : 1.46 GiB
Продолжительность                        : 2 h 3 min
Общий поток                              : 1 683 kb/s
Программа кодирования                    : XviD4PSP 6.0 / 54.27.101

Video
Идентификатор                            : 0
Формат                                   : MPEG-4 Visual
Профиль формата                          : Advanced Simple@L5
Настройки формата                        : BVOP2 / Custom Matrix
Параметр BVOP формата                    : 2
Параметр QPel формата                    : No
Параметр GMC формата                     : No warppoints
Параметр матрицы формата                 : Custom
Идентификатор кодека                     : XVID
Идентификатор кодека/Подсказка           : XviD
Продолжительность                        : 2 h 3 min
Битрейт                                  : 1 287 kb/s
Ширина                                   : 720 pixels
Высота                                   : 304 pixels
Соотношение сторон                       : 2.35:1
Частота кадров                           : 23.976 (23976/1000) FPS
Цветовое пространство                    : YUV
Субдискретизация насыщенности            : 4:2:0
Битовая глубина                          : 8 bits
Тип развёртки                            : Progressive
Метод сжатия                             : Lossy
Бит/(Пиксели*Кадры)                      : 0.245
Размер потока                            : 1.11 GiB (76%)
Библиотека кодирования                   : XviD 73

Audio
Идентификатор                            : 1
Формат                                   : AC-3
Формат/Информация                        : Audio Coding 3
Идентификатор кодека                     : 2000
Продолжительность                        : 2 h 3 min
Вид битрейта                             : Constant
Битрейт                                  : 384 kb/s
Каналы                                   : 6 channels
Расположение каналов                     : Front: L C R, Side: L R, LFE
Частота                                  : 48.0 kHz
Частота кадров                           : 31.250 FPS (1536 SPF)
Битовая глубина                          : 16 bits
Метод сжатия                             : Lossy
Размер потока                            : 340 MiB (23%)
Выравнивание                             : Aligned on interleaves
Продолжительность промежутка             : 32  ms (0.77 video frame)




Скриншоты:
[+] Всего файлов в раздаче - 1:
MaryQueenofScotsBDRip.avi1.46 GB

Показать еще раздачи по запросу королевы:
2019-03-14 U Две королевы / Mary Queen of Scots (2018) BDRip от MegaPeer | iTunes 2.13 GB ↑ 139 ↓ 32
2019-03-14 U Две королевы / Mary Queen of Scots (2018) BDRip от MegaPeer | iTunes 1.46 GB ↑ 128 ↓ 51
2019-03-14 U Две королевы / Mary Queen of Scots (2018) BDRip-AVC от OlLanDGroup | iTunes 2.32 GB ↑ 176 ↓ 37
2019-03-14 U Две королевы / Mary Queen of Scots (2018) BDRip 720p | iTunes 4.23 GB ↑ 76 ↓ 70
2019-03-14 U Две королевы / Mary Queen of Scots (2018) BDRip 1080p | iTunes 7.58 GB ↑ 291 ↓ 105
2019-02-19 U Две королевы / Mary Queen of Scots (2018) WEBRip 720p | L2 2.77 GB ↑ 188 ↓ 53
2019-02-19 U Две королевы / Mary Queen of Scots (2018) WEBRip | L2 1.72 GB ↑ 127 ↓ 49

Отзывы
Зарегистрируйтесь чтобы добавить комментарий.
Обратная связь
Copyleft ©