↑↓Torrent.by
Поиск
Логин: Регистрация
Пароль: Восстановить пароль
Загрузка...

Тройная граница / Triple Frontier (2019) WEBRip 720p | D

Скачать troynaya-granica-triple-frontier-2019-webrip-720p-d.torrent
U Магнитная ссылка Размер: 3.58 GB Раздают: 96 Качают: 36 Добавлен: 2019-03-14 06:52:09
Тройная граница / Triple Frontier (2019) WEBRip 720p | D

Название: Тройная граница
Оригинальное название: Triple Frontier
Год выхода: 2019
Жанр: Боевик, триллер, драма, криминал, приключения
Режиссер: Джей Си Чендор
В ролях: Бен Аффлек, Чарли Ханнэм, Адриа Архона, Педро Паскаль, Оскар Айзек, Гаррет Хедлунд, Шейла Ванд, Рейнальдо Гальегос, Кристин Хорн, Шон МакБрайд, Энджел Кристиан Роман, Мохамед Хакимшади, Педро Лопез, Джейсон Куинн, Карлос Линарес, ...

О фильме:
Пограничная зона между Парагваем, Аргентиной и Бразилией считается раем для организованной преступности, наркоторговцев и террористов. Долгие годы отряды специального назначения пытались зачистить регион, но безуспешно. Пятеро оперативников устали смотреть, как впустую погибают их коллеги, и решают взять дело в свои руки. Они рассчитывают ограбить местного наркобарона и одним выстрелом убить двух зайцев — лишить крупный картель финансирования и обеспечить себе безбедное существование.

Страна: США
Студия: Atlas Entertainment
Продолжительность: 02:05:20
Перевод: Дублированный |  Невафильм

Файл
Кодек: AVC
Качество: WEBRip 720p
Видео: MPEG-4 AVC, 3000 Kбит/с, 1280x608, 24.000 кадр/с
Звук: ► Раздача создана по заказу и при финансовой поддержке сайта EniaHD
Аудио #1: Русский ( АС3, 6ch, 384 Кбит/с, 48.0 KHz) Профессиональный (дублированный) Невафильм
Аудио #2: Английский ( АС3, 6ch, 640 Кбит/с, 48.0 KHz)
Субтитры: Русские (Forced, Full), английские, испанские, французские, немецкие, итальянские, португальские, польские, турецкие, шведские, датские, финские, норвежские, греческие, иврит, арабские, румынские, индонезийские, тайские, корейские, китайские | Нетфликс


[+] MediaInfo
Источник: Triple.Frontier.2019.720p.WEBRip.X264-DEFLATE
General
Unique ID                      : 243954041296553005953563589811782085330 (0xB787D6DD97A5533F93271B4F67B0EAD2)
Complete name                  : Triple.Frontier.2019.WEBRip.720p.mkv
Format                         : Matroska
Format version                 : Version 4 / Version 2
File size                      : 3.58 GiB
Duration                       : 2 h 5 min
Overall bit rate               : 4 069 kb/s
Encoded date                   : UTC 2019-03-13 18:36:25
Writing application            : mkvmerge v7.1.0 ('Good Love') 64bit built on Jul 27 2014 13:06:55
Writing library                : libebml v1.3.0 + libmatroska v1.4.1

Video
ID                             : 1
Format                         : AVC
Format/Info                    : Advanced Video Codec
Format profile                 : High@L4.1
Format settings, CABAC         : Yes
Format settings, RefFrames     : 9 frames
Codec ID                       : V_MPEG4/ISO/AVC
Duration                       : 2 h 5 min
Bit rate                       : 3 053 kb/s
Width                          : 1 280 pixels
Height                         : 608 pixels
Display aspect ratio           : 2.105
Frame rate mode                : Constant
Frame rate                     : 24.000 FPS
Color space                    : YUV
Chroma subsampling             : 4:2:0
Bit depth                      : 8 bits
Scan type                      : Progressive
Bits/(Pixel*Frame)             : 0.163
Stream size                    : 2.67 GiB (75%)
Writing library                : x264 core 157 r2935+3 (master: 545de2f / tmod: 0f48dd4) [X86_64]
Encoding settings              : cabac=1 / ref=9 / deblock=1:-3:-3 / analyse=0x3:0x133 / me=umh / subme=10 / psy=1 / psy_rd=1.05:0.10 / mixed_ref=1 / me_range=48 / chroma_me=1 / trellis=2 / 8x8dct=1 / cqm=0 / deadzone=6,6 / fast_pskip=0 / chroma_qp_offset=-3 / threads=19 / lookahead_threads=3 / sliced_threads=0 / nr=0 / decimate=0 / interlaced=0 / bluray_compat=0 / constrained_intra=0 / bframes=9 / b_pyramid=2 / b_adapt=2 / b_bias=0 / direct=3 / weightb=1 / open_gop=0 / weightp=2 / keyint=250 / keyint_min=24 / scenecut=40 / intra_refresh=0 / rc_lookahead=60 / rc=crf / mbtree=0 / crf=18.0 / qcomp=0.70 / qpmin=0 / qpmax=69 / qpstep=4 / vbv_maxrate=62500 / vbv_bufsize=78125 / crf_max=0.0 / nal_hrd=none / filler=0 / ip_ratio=1.25 / pb_ratio=1.20 / aq=3:0.80
Language                       : English
Default                        : Yes
Forced                         : No

Audio #1
ID                             : 2
Format                         : AC-3
Format/Info                    : Audio Coding 3
Format settings, Endianness    : Big
Codec ID                       : A_AC3
Duration                       : 2 h 5 min
Bit rate mode                  : Constant
Bit rate                       : 384 kb/s
Channel(s)                     : 6 channels
Channel positions              : Front: L C R, Side: L R, LFE
Sampling rate                  : 48.0 kHz
Frame rate                     : 31.250 FPS (1536 SPF)
Bit depth                      : 16 bits
Compression mode               : Lossy
Stream size                    : 346 MiB (9%)
Title                          : DUB | Невафильм
Language                       : Russian
Service kind                   : Complete Main
Default                        : Yes
Forced                         : No

Audio #2
ID                             : 3
Format                         : AC-3
Format/Info                    : Audio Coding 3
Format settings, Endianness    : Big
Codec ID                       : A_AC3
Duration                       : 2 h 5 min
Bit rate mode                  : Constant
Bit rate                       : 640 kb/s
Channel(s)                     : 6 channels
Channel positions              : Front: L C R, Side: L R, LFE
Sampling rate                  : 48.0 kHz
Frame rate                     : 31.250 FPS (1536 SPF)
Bit depth                      : 16 bits
Compression mode               : Lossy
Stream size                    : 576 MiB (16%)
Language                       : English
Service kind                   : Complete Main
Default                        : No
Forced                         : No

Text #1
ID                             : 4
Format                         : UTF-8
Codec ID                       : S_TEXT/UTF8
Codec ID/Info                  : UTF-8 Plain Text
Duration                       : 2 h 4 min
Bit rate                       : 6 b/s
Count of elements              : 169
Stream size                    : 6.18 KiB (0%)
Title                          : Forced
Language                       : Russian
Default                        : Yes
Forced                         : Yes

Text #2
ID                             : 5
Format                         : UTF-8
Codec ID                       : S_TEXT/UTF8
Codec ID/Info                  : UTF-8 Plain Text
Duration                       : 2 h 4 min
Bit rate                       : 65 b/s
Count of elements              : 1433
Stream size                    : 59.9 KiB (0%)
Title                          : Russian
Language                       : Russian
Default                        : No
Forced                         : No

Text #3
ID                             : 6
Format                         : UTF-8
Codec ID                       : S_TEXT/UTF8
Codec ID/Info                  : UTF-8 Plain Text
Duration                       : 1 h 53 min
Bit rate                       : 5 b/s
Count of elements              : 175
Stream size                    : 4.16 KiB (0%)
Title                          : English (Forced)
Language                       : English
Default                        : No
Forced                         : No

Text #4
ID                             : 7
Format                         : UTF-8
Codec ID                       : S_TEXT/UTF8
Codec ID/Info                  : UTF-8 Plain Text
Duration                       : 1 h 56 min
Bit rate                       : 49 b/s
Count of elements              : 1425
Stream size                    : 42.2 KiB (0%)
Title                          : English
Language                       : English
Default                        : No
Forced                         : No

Text #5
ID                             : 8
Format                         : UTF-8
Codec ID                       : S_TEXT/UTF8
Codec ID/Info                  : UTF-8 Plain Text
Duration                       : 1 h 57 min
Bit rate                       : 64 b/s
Count of elements              : 1763
Stream size                    : 55.6 KiB (0%)
Title                          : English (SDH)
Language                       : English
Default                        : No
Forced                         : No

Text #6
ID                             : 9
Format                         : UTF-8
Codec ID                       : S_TEXT/UTF8
Codec ID/Info                  : UTF-8 Plain Text
Duration                       : 1 h 57 min
Bit rate                       : 91 b/s
Count of elements              : 1481
Stream size                    : 78.4 KiB (0%)
Title                          : Arabic
Language                       : Arabic
Default                        : No
Forced                         : No

Text #7
ID                             : 10
Format                         : UTF-8
Codec ID                       : S_TEXT/UTF8
Codec ID/Info                  : UTF-8 Plain Text
Duration                       : 2 h 4 min
Bit rate                       : 45 b/s
Count of elements              : 1475
Stream size                    : 41.4 KiB (0%)
Title                          : Chinese (Simplified)
Language                       : Chinese
Default                        : No
Forced                         : No

Text #8
ID                             : 11
Format                         : UTF-8
Codec ID                       : S_TEXT/UTF8
Codec ID/Info                  : UTF-8 Plain Text
Duration                       : 2 h 4 min
Bit rate                       : 45 b/s
Count of elements              : 1489
Stream size                    : 41.5 KiB (0%)
Title                          : Chinese (Traditional)
Language                       : Chinese
Default                        : No
Forced                         : No

Text #9
ID                             : 12
Format                         : UTF-8
Codec ID                       : S_TEXT/UTF8
Codec ID/Info                  : UTF-8 Plain Text
Duration                       : 2 h 4 min
Bit rate                       : 36 b/s
Count of elements              : 1442
Stream size                    : 33.4 KiB (0%)
Title                          : Danish
Language                       : Danish
Default                        : No
Forced                         : No

Text #10
ID                             : 13
Format                         : UTF-8
Codec ID                       : S_TEXT/UTF8
Codec ID/Info                  : UTF-8 Plain Text
Duration                       : 2 h 4 min
Bit rate                       : 38 b/s
Count of elements              : 1210
Stream size                    : 35.1 KiB (0%)
Title                          : Dutch
Language                       : Dutch
Default                        : No
Forced                         : No

Text #11
ID                             : 14
Format                         : UTF-8
Codec ID                       : S_TEXT/UTF8
Codec ID/Info                  : UTF-8 Plain Text
Duration                       : 1 h 57 min
Bit rate                       : 43 b/s
Count of elements              : 1206
Stream size                    : 37.7 KiB (0%)
Title                          : Finnish
Language                       : Finnish
Default                        : No
Forced                         : No

Text #12
ID                             : 15
Format                         : UTF-8
Codec ID                       : S_TEXT/UTF8
Codec ID/Info                  : UTF-8 Plain Text
Duration                       : 2 h 4 min
Bit rate                       : 46 b/s
Count of elements              : 1461
Stream size                    : 42.7 KiB (0%)
Title                          : French
Language                       : French
Default                        : No
Forced                         : No

Text #13
ID                             : 16
Format                         : UTF-8
Codec ID                       : S_TEXT/UTF8
Codec ID/Info                  : UTF-8 Plain Text
Duration                       : 2 h 4 min
Bit rate                       : 43 b/s
Count of elements              : 1456
Stream size                    : 40.0 KiB (0%)
Title                          : German
Language                       : German
Default                        : No
Forced                         : No

Text #14
ID                             : 17
Format                         : UTF-8
Codec ID                       : S_TEXT/UTF8
Codec ID/Info                  : UTF-8 Plain Text
Duration                       : 2 h 4 min
Bit rate                       : 70 b/s
Count of elements              : 1455
Stream size                    : 64.3 KiB (0%)
Title                          : Greek
Language                       : Greek
Default                        : No
Forced                         : No

Text #15
ID                             : 18
Format                         : UTF-8
Codec ID                       : S_TEXT/UTF8
Codec ID/Info                  : UTF-8 Plain Text
Duration                       : 2 h 4 min
Bit rate                       : 69 b/s
Count of elements              : 1475
Stream size                    : 63.9 KiB (0%)
Title                          : Hebrew
Language                       : Hebrew
Default                        : No
Forced                         : No

Text #16
ID                             : 19
Format                         : UTF-8
Codec ID                       : S_TEXT/UTF8
Codec ID/Info                  : UTF-8 Plain Text
Duration                       : 2 h 4 min
Bit rate                       : 42 b/s
Count of elements              : 1469
Stream size                    : 38.6 KiB (0%)
Title                          : Indonesian
Language                       : Indonesian
Default                        : No
Forced                         : No

Text #17
ID                             : 20
Format                         : UTF-8
Codec ID                       : S_TEXT/UTF8
Codec ID/Info                  : UTF-8 Plain Text
Duration                       : 2 h 4 min
Bit rate                       : 44 b/s
Count of elements              : 1475
Stream size                    : 40.5 KiB (0%)
Title                          : Italian
Language                       : Italian
Default                        : No
Forced                         : No

Text #18
ID                             : 21
Format                         : UTF-8
Codec ID                       : S_TEXT/UTF8
Codec ID/Info                  : UTF-8 Plain Text
Duration                       : 2 h 4 min
Bit rate                       : 40 b/s
Count of elements              : 1449
Stream size                    : 37.4 KiB (0%)
Title                          : Japanese
Language                       : Japanese
Default                        : No
Forced                         : No

Text #19
ID                             : 22
Format                         : UTF-8
Codec ID                       : S_TEXT/UTF8
Codec ID/Info                  : UTF-8 Plain Text
Duration                       : 1 h 57 min
Bit rate                       : 56 b/s
Count of elements              : 1478
Stream size                    : 48.4 KiB (0%)
Title                          : Korean
Language                       : Korean
Default                        : No
Forced                         : No

Text #20
ID                             : 23
Format                         : UTF-8
Codec ID                       : S_TEXT/UTF8
Codec ID/Info                  : UTF-8 Plain Text
Duration                       : 2 h 4 min
Bit rate                       : 36 b/s
Count of elements              : 1452
Stream size                    : 33.7 KiB (0%)
Title                          : Norwegian
Language                       : Norwegian
Default                        : No
Forced                         : No

Text #21
ID                             : 24
Format                         : UTF-8
Codec ID                       : S_TEXT/UTF8
Codec ID/Info                  : UTF-8 Plain Text
Duration                       : 2 h 4 min
Bit rate                       : 40 b/s
Count of elements              : 1471
Stream size                    : 36.8 KiB (0%)
Title                          : Polish
Language                       : Polish
Default                        : No
Forced                         : No

Text #22
ID                             : 25
Format                         : UTF-8
Codec ID                       : S_TEXT/UTF8
Codec ID/Info                  : UTF-8 Plain Text
Duration                       : 2 h 4 min
Bit rate                       : 43 b/s
Count of elements              : 1479
Stream size                    : 39.9 KiB (0%)
Title                          : Portuguese
Language                       : Portuguese
Default                        : No
Forced                         : No

Text #23
ID                             : 26
Format                         : UTF-8
Codec ID                       : S_TEXT/UTF8
Codec ID/Info                  : UTF-8 Plain Text
Duration                       : 2 h 4 min
Bit rate                       : 45 b/s
Count of elements              : 1440
Stream size                    : 41.2 KiB (0%)
Title                          : Portuguese (Brazilian)
Language                       : Portuguese
Default                        : No
Forced                         : No

Text #24
ID                             : 27
Format                         : UTF-8
Codec ID                       : S_TEXT/UTF8
Codec ID/Info                  : UTF-8 Plain Text
Duration                       : 2 h 4 min
Bit rate                       : 47 b/s
Count of elements              : 1403
Stream size                    : 43.3 KiB (0%)
Title                          : Romanian
Language                       : Romanian
Default                        : No
Forced                         : No

Text #25
ID                             : 28
Format                         : UTF-8
Codec ID                       : S_TEXT/UTF8
Codec ID/Info                  : UTF-8 Plain Text
Duration                       : 2 h 4 min
Bit rate                       : 37 b/s
Count of elements              : 1265
Stream size                    : 34.5 KiB (0%)
Title                          : Spanish
Language                       : Spanish
Default                        : No
Forced                         : No

Text #26
ID                             : 29
Format                         : UTF-8
Codec ID                       : S_TEXT/UTF8
Codec ID/Info                  : UTF-8 Plain Text
Duration                       : 2 h 4 min
Bit rate                       : 43 b/s
Count of elements              : 1479
Stream size                    : 40.2 KiB (0%)
Title                          : Spanish
Language                       : Spanish
Default                        : No
Forced                         : No

Text #27
ID                             : 30
Format                         : UTF-8
Codec ID                       : S_TEXT/UTF8
Codec ID/Info                  : UTF-8 Plain Text
Duration                       : 2 h 4 min
Bit rate                       : 40 b/s
Count of elements              : 1442
Stream size                    : 37.1 KiB (0%)
Title                          : Swedish
Language                       : Swedish
Default                        : No
Forced                         : No

Text #28
ID                             : 31
Format                         : UTF-8
Codec ID                       : S_TEXT/UTF8
Codec ID/Info                  : UTF-8 Plain Text
Duration                       : 2 h 4 min
Bit rate                       : 110 b/s
Count of elements              : 1481
Stream size                    : 101 KiB (0%)
Title                          : Thai
Language                       : Thai
Default                        : No
Forced                         : No

Text #29
ID                             : 32
Format                         : UTF-8
Codec ID                       : S_TEXT/UTF8
Codec ID/Info                  : UTF-8 Plain Text
Duration                       : 2 h 4 min
Bit rate                       : 45 b/s
Count of elements              : 1477
Stream size                    : 41.5 KiB (0%)
Title                          : Turkish
Language                       : Turkish
Default                        : No
Forced                         : No




Скриншоты:
[+] Всего файлов в раздаче - 1:
Triple.Frontier.2019.WEBRip.720p.mkv3.58 GB

Показать еще раздачи по запросу тройная:
2019-03-31 U Тройная угроза / Triple Threat (2019) BDRip-HEVC 1080p от HANNIBAL | iTunes 4.58 GB ↑ 119 ↓ 21
2019-03-30 U Тройная угроза / Triple Threat (2019) BDRip-AVC от OlLanDGroup | iTunes 1.80 GB ↑ 107 ↓ 18
2019-03-30 U Тройная угроза / Triple Threat (2019) BDRip 1080p от селезень | iTunes 7.38 GB ↑ 124 ↓ 61
2019-03-30 U Тройная угроза / Triple Threat (2019) BDRip 720p от селезень | iTunes 3.70 GB ↑ 122 ↓ 54
2019-03-30 U Тройная угроза / Triple Threat (2019) BDRemux 1080p от селезень | iTunes 22.18 GB ↑ 46 ↓ 29
2019-03-30 U Тройная угроза / Triple Threat (2019) BDRip от MegaPeer | iTunes 1.42 GB ↑ 173 ↓ 30
2019-03-24 U Тройная угроза / Triple Threat (2019) WEB-DLRip от Scarabey | iTunes 1К1.44 GB ↑ 153 ↓ 39

Отзывы
Зарегистрируйтесь чтобы добавить комментарий.
Обратная связь
Copyleft ©