↑↓Torrent.by
Поиск
Логин: Регистрация
Пароль: Восстановить пароль
Загрузка...

Человек-паук: Через вселенные / Spider-Man: Into the Spider-Verse (2018) BDRip-HEVC 1080p от Donatik | iTunes

Скачать chelovek-pauk-cherez-vselennye-spider-man-into-the-verse-2018-bdrip-hevc-1080p-ot-donatik-itunes.torrent
U Магнитная ссылка Размер: 7.78 GB Раздают: 77 Качают: 49 Добавлен: 2019-03-14 06:52:22
Человек-паук: Через вселенные / Spider-Man: Into the Spider-Verse (2018) BDRip-HEVC 1080p от Donatik | iTunes

Название: Человек-паук: Через вселенные
Оригинальное название: Spider-Man: Into the Spider-Verse
Год выхода: 2018
Жанр: Мультфильм, фантастика, комедия, приключения, семейный, полнометражный
Режиссер: Боб Персичетти, Питер Рэмзи, Родни Ротман
В ролях: Шамеик Мур, Джейк Джонсон, Хейли Стайнфелд, Махершала Али, Брайан Тайри Генри, Лили Томлин, Лорен Велес, Зои Кравиц, Джон Мулэйни, Кимико Гленн, Николас Кейдж, Кэтрин Хан, Лив Шрайбер, Крис Пайн, Натали Моралес, Эдвин Хэбакон, Оскар Айзек, Грета Ли, Стэн Ли, Йорма Такконе

О фильме:
Мы всё знаем о Питере Паркере. Он спас город, влюбился, а потом спасал город снова и снова… Но все это — в нашем измерении. А что если в результате работы гигантского коллайдера откроется окно из одного измерения в другое? Найдется ли в нем свой Человек-паук? И как он будет выглядеть? Приготовьтесь к тому, что в разных вселенных могут быть разные Люди-пауки и однажды им придется собраться вместе для борьбы с почти непобедимым врагом.

Страна: США
Студия: Avi Arad Productions, Columbia Pictures Corporation, Lord Miller
Продолжительность: 01:56:50
Перевод: Дублированный (iTunes)

Файл
Качество: BDRip-HEVC 1080p
Видео: HEVC/x.265, 1920x804, ~8701 Kbps
Звук 1: AC3, 6 ch, 384 Kbps  Дублированный (iTunes)
Звук 2: AC3, 6 ch, 448 Kbps  (Оригинал)
Субтитры: Русские(Forced)

Релиз:
[+] Mediainfo

General
Unique ID                   : 102216094150426191518963420409899301757 (0x4CE61A88F45F7C6D600ACBD94D20BB7D)
Complete name               : H:HEVC-CLUBSpider-Man Into the Spider-Verse (2018) BDRip 1080p [HEVC] 10Bbit.mkv
Format                      : Matroska
Format version              : Version 4
File size                   : 7.78 GiB
Duration                    : 1 h 56 min
Overall bit rate            : 9 535 kb/s
Movie name                  : Человек-паук: Через вселенные
Encoded date                : UTC 2019-03-13 14:38:40
Writing application         : mkvmerge v25.0.0 ('Prog Noir') 64-bit
Writing library             : libebml v1.3.6 + libmatroska v1.4.9 / Lavf57.71.100
Attachments                 : poster.jpg
ACTORS                      : Шамеик Мур, Джейк Джонсон,
COUNTRY                     : США
DATE                        : 2018
DIRECTOR                    : Боб Персичетти
ENCODING_INFO               : MPEGTS > MKV 1080p 10-bit / H264 > X265 CRF 17.5 Medium / AC3 > AC3 CBR 384kbps / TRUEHD > AC3 CBR 448kbps
GENRE                       : мультфильм, фантастика, боевик
HD_VIDEO                    : 1
Language                    : und
MEDIA_TYPE                  : 9
ORIGINAL_TITLE              : Spider-Man: Into the Spider-Verse

Video
ID                          : 1
Format                      : HEVC
Format/Info                 : High Efficiency Video Coding
Format profile              : Main 10@L4.1@High
Codec ID                    : V_MPEGH/ISO/HEVC
Duration                    : 1 h 56 min
Bit rate                    : 8 701 kb/s
Width                       : 1 920 pixels
Height                      : 804 pixels
Display aspect ratio        : 2.40:1
Frame rate mode             : Constant
Frame rate                  : 23.976 (24000/1001) FPS
Color space                 : YUV
Chroma subsampling          : 4:2:0
Bit depth                   : 10 bits
Bits/(Pixel*Frame)          : 0.235
Stream size                 : 7.10 GiB (91%)
Writing library             : x265 2.9+9-f74003e88622:[Windows][GCC 8.2.0][64 bit] 10bit
Encoding settings           : cpuid=1111039 / frame-threads=7 / numa-pools=6 / wpp / no-pmode / no-pme / no-psnr / no-ssim / log-level=3 / input-csp=1 / input-res=1920x804 / interlace=0 / total-frames=0 / level-idc=41 / high-tier=1 / uhd-bd=0 / ref=5 / allow-non-conformance / no-repeat-headers / annexb / no-aud / no-hrd / info / hash=0 / no-temporal-layers / open-gop / min-keyint=24 / keyint=240 / gop-lookahead=0 / bframes=8 / b-adapt=2 / b-pyramid / bframe-bias=0 / rc-lookahead=20 / lookahead-slices=5 / scenecut=40 / radl=0 / no-intra-refresh / ctu=64 / min-cu-size=8 / rect / amp / max-tu-size=32 / tu-inter-depth=1 / tu-intra-depth=1 / limit-tu=0 / rdoq-level=0 / dynamic-rd=0.00 / no-ssim-rd / signhide / no-tskip / nr-intra=0 / nr-inter=0 / no-constrained-intra / no-strong-intra-smoothing / max-merge=2 / limit-refs=3 / no-limit-modes / me=3 / subme=7 / merange=57 / temporal-mvp / weightp / no-weightb / no-analyze-src-pics / deblock=-3:-3 / no-sao / no-sao-non-deblock / rd=3 / no-early-skip / rskip / no-fast-intra / no-tskip-fast / no-cu-lossless / no-b-intra / no-splitrd-skip / rdpenalty=0 / psy-rd=2.00 / psy-rdoq=0.00 / no-rd-refine / no-lossless / cbqpoffs=0 / crqpoffs=0 / rc=crf / crf=17.5 / qcomp=0.70 / qpstep=4 / stats-write=0 / stats-read=0 / vbv-maxrate=50000 / vbv-bufsize=50000 / vbv-init=0.9 / crf-max=30.0 / crf-min=0.0 / ipratio=1.40 / pbratio=1.30 / aq-mode=1 / aq-strength=1.00 / cutree / zone-count=0 / no-strict-cbr / qg-size=32 / no-rc-grain / qpmax=69 / qpmin=0 / no-const-vbv / sar=1 / overscan=0 / videoformat=5 / range=0 / colorprim=1 / transfer=1 / colormatrix=1 / chromaloc=0 / display-window=0 / max-cll=0,0 / min-luma=0 / max-luma=1023 / log2-max-poc-lsb=8 / vui-timing-info / vui-hrd-info / slices=1 / no-opt-qp-pps / no-opt-ref-list-length-pps / no-multi-pass-opt-rps / scenecut-bias=0.05 / no-opt-cu-delta-qp / no-aq-motion / no-hdr / no-hdr-opt / no-dhdr10-opt / no-idr-recovery-sei / analysis-reuse-level=5 / scale-factor=0 / refine-intra=0 / refine-inter=0 / refine-mv=0 / no-limit-sao / ctu-info=0 / no-lowpass-dct / refine-mv-type=0 / copy-pic=1 / max-ausize-factor=1.0 / no-dynamic-refine / no-single-sei
Default                     : Yes
Forced                      : No
Color range                 : Limited
Color primaries             : BT.709
Transfer characteristics    : BT.709
Matrix coefficients         : BT.709

Audio #1
ID                          : 2
Format                      : AC-3
Format/Info                 : Audio Coding 3
Commercial name             : Dolby Digital
Codec ID                    : A_AC3
Duration                    : 1 h 56 min
Bit rate mode               : Constant
Bit rate                    : 384 kb/s
Channel(s)                  : 6 channels
Channel layout              : L R C LFE Ls Rs
Sampling rate               : 48.0 kHz
Frame rate                  : 31.250 FPS (1536 SPF)
Bit depth                   : 16 bits
Compression mode            : Lossy
Stream size                 : 321 MiB (4%)
Language                    : Russian
Service kind                : Complete Main
Default                     : Yes
Forced                      : No

Audio #2
ID                          : 3
Format                      : AC-3
Format/Info                 : Audio Coding 3
Commercial name             : Dolby Digital
Codec ID                    : A_AC3
Duration                    : 1 h 56 min
Bit rate mode               : Constant
Bit rate                    : 448 kb/s
Channel(s)                  : 6 channels
Channel layout              : L R C LFE Ls Rs
Sampling rate               : 48.0 kHz
Frame rate                  : 31.250 FPS (1536 SPF)
Bit depth                   : 16 bits
Compression mode            : Lossy
Stream size                 : 374 MiB (5%)
Language                    : English
Service kind                : Complete Main
Default                     : No
Forced                      : No

Text
ID                          : 4
Format                      : UTF-8
Codec ID                    : S_TEXT/UTF8
Codec ID/Info               : UTF-8 Plain Text
Duration                    : 1 h 55 min
Bit rate                    : 2 b/s
Count of elements           : 64
Stream size                 : 2.17 KiB (0%)
Default                     : Yes
Forced                      : No

Menu
00:00:00.000                : :Глава 1
00:09:05.461                : :Глава 2
00:16:24.692                : :Глава 3
00:25:56.930                : :Глава 4
00:38:08.160                : :Глава 5
00:47:40.315                : :Глава 6
00:56:32.305                : :Глава 7
01:04:57.685                : :Глава 8
01:14:29.965                : :Глава 9
01:24:02.120                : :Глава 10
01:33:07.498                : :Глава 11
01:40:26.770                : :Глава 12
01:51:05.283                : :Глава 13




Скриншоты:
[+] Всего файлов в раздаче - 1:
Spider-Man Into the Spider-Verse (2018) BDRip 1080p [HEVC] 10Bbit.mkv7.78 GB

Показать еще раздачи по запросу человек:
Вчера U Человек-паук: Через вселенные / Spider-Man: Into the Spider-Verse (2018) BDRip 1080p от Ash61 | 3D-Video | halfOU | iTunes 14.04 GB ↑ 71 ↓ 27
2019-03-16 U Человек-паук: Через вселенные / Spider-Man: Into the Spider-Verse (2018) WEB-DLRip от Dalemake | D | Локализованный видеоряд 1.47 GB ↑ 105 ↓ 13
2019-03-13 U Человек-паук: Через вселенные / Spider-Man: Into the Spider-Verse (2018) BDRemux 1080p от селезень | iTunes 21.36 GB ↑ 73 ↓ 44
2019-03-12 U Человек-паук: Через вселенные / Spider-Man: Into the Spider-Verse (2018) HDRip от OlLanDGroup | iTunes 746.88 MB ↑ 54 ↓ 20
2019-03-12 U Человек-паук: Через вселенные / Spider-Man: Into the Spider-Verse (2018) UHD BDRip 2160p | 4K | HDR | iTunes 15.85 GB ↑ 65 ↓ 54
2019-03-11 U Человек-паук: Через вселенные / Spider-Man: Into the Spider-Verse (2018) UHD BDRemux 2160p от селезень | 4K | HDR | iTunes 42.36 GB ↑ 134 ↓ 295
2019-03-11 U Человек-паук: Через вселенные / Spider-Man: Into the Spider-Verse (2018) HDRip от MegaPeer | iTunes 2.18 GB ↑ 330 ↓ 145

Отзывы
Зарегистрируйтесь чтобы добавить комментарий.
Обратная связь
Copyleft ©