↑↓Torrent.by
Поиск
Логин: Регистрация
Пароль: Восстановить пароль
Загрузка...

Тройная граница / Triple Frontier (2018) WEB-DLRip-AVC от OlLanDGroup | Невафильм

Скачать troynaya-granica-triple-frontier-2018-web-dlrip-avc-ot-ollandgroup-nevafilm.torrent
U Магнитная ссылка Размер: 2.45 GB Раздают: 76 Качают: 45 Добавлен: 2019-03-14 06:52:29
Тройная граница / Triple Frontier (2018) WEB-DLRip-AVC от OlLanDGroup | Невафильм

Тройная граница / Triple Frontier

Год выпуска: 2018
Страна: США
Производство: Atlas Entertainment, Netflix
Жанр:  Боевик, триллер, драма, криминал, приключения

Режиссёр: Джей Си Чендор
В ролях: Бен Аффлек, Чарли Ханнэм, Адриа Архона, Педро Паскаль, Оскар Айзек, Гаррет Хедлунд, Шейла Ванд, Рейнальдо Гальегос, Кристин Хорн, Шон МакБрайд

Перевод: Профессиональный многоголосый | [Невафильм] по заказу NETFLIX
Субтитры: Русские (форс., полные), Английские (фор., полные, SDH)
Реклама: Отсутствует

Описание: Пограничная зона между Парагваем, Аргентиной и Бразилией считается раем для организованной преступности, наркоторговцев и террористов. Долгие годы отряды специального назначения пытались зачистить регион, но безуспешно. Пятеро оперативников устали смотреть, как впустую погибают их коллеги, и решают взять дело в свои руки. Они рассчитывают ограбить местного наркобарона и одним выстрелом убить двух зайцев — лишить крупный картель финансирования и обеспечить себе безбедное существование.

Качество: WEB-DLRip-AVC | NETFLIX Version | За исходник спасибо: Wilmots@EniaHD
Продолжительность: 02:05:52

Формат: MKV
Видео кодек: MPEG-4 AVC
Аудио кодек: AC3
Видео: 1024x486 (2.107:1), 24,000 fps, x264 ~1 966 kbps avg, 0.165 bit/pixel
Аудио #1: 48 kHz, AC3 Dolby Digital, 3/2 (L,C,R,l,r) + LFE ch, ~384.00 kbps avg | RUS (Невафильм)
Аудио #2: 48 kHz, E-AC3 Dolby Digital Plus, 3/2 (L,C,R,l,r) + LFE ch, ~448.00 kbps avg | ENG

Дата премьеры (мир): 6 марта 2019
Дата премьеры (РФ):
Цифровой релиз:

Релиз:


[+] MediaInfo

Общее
Уникальный идентификатор                 : 106291736511214005796006457352414130349 (0x4FF70B37B53F04A0C5150F1506E570AD)
Полное имя                               : F:OlLanDGroupTriple.Frontier.2019.WEB-DLRip(AVC).OlLanDGroup.mkv
Формат                                   : Matroska
Версия формата                           : Version 4 / Version 2
Размер файла                             : 2,45 Гбайт
Продолжительность                        : 2 ч. 5 м.
Общий поток                              : 2785 Кбит/сек
Название фильма                          : Тройная граница (2019)    #TorpedoUK#
Дата кодирования                         : UTC 2019-03-13 23:49:16
Программа кодирования                    : mkvmerge v29.0.0 ('Like It Or Not') 64-bit
Библиотека кодирования                   : libebml v1.3.6 + libmatroska v1.4.9

Видео
Идентификатор                            : 1
Формат                                   : AVC
Формат/Информация                        : Advanced Video Codec
Профиль формата                          : High@L4.1
Параметр CABAC формата                   : Да
Параметр ReFrames формата                : 10 кадров
Идентификатор кодека                     : V_MPEG4/ISO/AVC
Продолжительность                        : 2 ч. 5 м.
Битрейт                                  : 1966 Кбит/сек
Ширина                                   : 1024 пикселя
Высота                                   : 486 пикселей
Соотношение сторон                       : 2,107
Режим частоты кадров                     : Постоянный
Частота кадров                           : 24,000 кадра/сек
Цветовое пространство                    : YUV
Субдискретизация насыщенности            : 4:2:0
Битовая глубина                          : 8 бит
Тип развёртки                            : Прогрессивная
Бит/(Пиксели*Кадры)                      : 0.165
Размер потока                            : 1,72 Гбайт (70%)
Библиотека кодирования                   : x264 core 146 r2538 121396c
Настройки программы                      : cabac=1 / ref=10 / deblock=1:-2:-3 / analyse=0x3:0x113 / me=umh / subme=10 / psy=1 / psy_rd=0.95:0.07 / mixed_ref=1 / me_range=48 / chroma_me=1 / trellis=2 / 8x8dct=1 / cqm=0 / deadzone=21,11 / fast_pskip=1 / chroma_qp_offset=-3 / threads=6 / lookahead_threads=1 / sliced_threads=0 / nr=0 / decimate=1 / interlaced=0 / bluray_compat=0 / constrained_intra=0 / bframes=11 / b_pyramid=2 / b_adapt=2 / b_bias=0 / direct=3 / weightb=1 / open_gop=0 / weightp=2 / keyint=240 / keyint_min=24 / scenecut=40 / intra_refresh=0 / rc_lookahead=40 / rc=2pass / mbtree=0 / bitrate=1966 / ratetol=1.0 / qcomp=0.60 / qpmin=0 / qpmax=69 / qpstep=4 / cplxblur=20.0 / qblur=0.5 / vbv_maxrate=50000 / vbv_bufsize=62500 / nal_hrd=none / filler=0 / ip_ratio=1.40 / pb_ratio=1.30 / aq=1:1.00
Язык                                     : English
Default                                  : Да
Forced                                   : Нет

Аудио #1
Идентификатор                            : 2
Формат                                   : AC-3
Формат/Информация                        : Audio Coding 3
Расширение режима                        : CM (complete main)
Параметр Endianness формата              : Big
Идентификатор кодека                     : A_AC3
Продолжительность                        : 2 ч. 5 м.
Вид битрейта                             : Постоянный
Битрейт                                  : 384 Кбит/сек
Каналы                                   : 6 каналов
Расположение каналов                     : Front: L C R, Side: L R, LFE
Частота                                  : 48,0 КГц
Частота кадров                           : 31,250 кадров/сек (1536 spf)
Битовая глубина                          : 16 бит
Метод сжатия                             : С потерями
Размер потока                            : 346 Мбайт (14%)
Заголовок                                : AC3 5.1 @ 384 kbps - DUB, Невафильм
Язык                                     : Russian
Default                                  : Да
Forced                                   : Нет

Аудио #2
Идентификатор                            : 3
Формат                                   : E-AC-3
Формат/Информация                        : Enhanced Audio Coding 3
Параметр Endianness формата              : Big
Идентификатор кодека                     : A_EAC3
Продолжительность                        : 2 ч. 5 м.
Вид битрейта                             : Постоянный
Битрейт                                  : 448 Кбит/сек
Каналы                                   : 6 каналов
Расположение каналов                     : Front: L C R, Side: L R, LFE
Частота                                  : 48,0 КГц
Частота кадров                           : 187,500 кадров/сек (256 spf)
Метод сжатия                             : С потерями
Размер потока                            : 403 Мбайт (16%)
Заголовок                                : E-AC3 + Atmos 5.1 @ 448 kbps - Original
Язык                                     : English
Default                                  : Нет
Forced                                   : Нет

Текст #1
Идентификатор                            : 4
Формат                                   : UTF-8
Идентификатор кодека                     : S_TEXT/UTF8
Идентификатор кодека/Информация          : UTF-8 Plain Text
Продолжительность                        : 2 ч. 4 м.
Битрейт                                  : 6 бит/сек
Count of elements                        : 169
Размер потока                            : 6,18 Кбайт (0%)
Заголовок                                : Forced
Язык                                     : Russian
Default                                  : Да
Forced                                   : Да

Текст #2
Идентификатор                            : 5
Формат                                   : UTF-8
Идентификатор кодека                     : S_TEXT/UTF8
Идентификатор кодека/Информация          : UTF-8 Plain Text
Продолжительность                        : 1 ч. 57 м.
Битрейт                                  : 71 бит/сек
Count of elements                        : 1397
Размер потока                            : 61,1 Кбайт (0%)
Заголовок                                : Full
Язык                                     : Russian
Default                                  : Нет
Forced                                   : Нет

Текст #3
Идентификатор                            : 6
Формат                                   : UTF-8
Идентификатор кодека                     : S_TEXT/UTF8
Идентификатор кодека/Информация          : UTF-8 Plain Text
Продолжительность                        : 1 ч. 47 м.
Битрейт                                  : 5 бит/сек
Count of elements                        : 168
Размер потока                            : 4,32 Кбайт (0%)
Заголовок                                : Forced
Язык                                     : English
Default                                  : Нет
Forced                                   : Нет

Текст #4
Идентификатор                            : 7
Формат                                   : UTF-8
Идентификатор кодека                     : S_TEXT/UTF8
Идентификатор кодека/Информация          : UTF-8 Plain Text
Продолжительность                        : 1 ч. 56 м.
Битрейт                                  : 54 бит/сек
Count of elements                        : 1464
Размер потока                            : 46,6 Кбайт (0%)
Заголовок                                : Full
Язык                                     : English
Default                                  : Нет
Forced                                   : Нет

Текст #5
Идентификатор                            : 8
Формат                                   : UTF-8
Идентификатор кодека                     : S_TEXT/UTF8
Идентификатор кодека/Информация          : UTF-8 Plain Text
Продолжительность                        : 1 ч. 57 м.
Битрейт                                  : 66 бит/сек
Count of elements                        : 1725
Размер потока                            : 57,2 Кбайт (0%)
Заголовок                                : Full SDH
Язык                                     : English
Default                                  : Нет
Forced                                   : Нет



Скриншоты:
[+] Всего файлов в раздаче - 1:
Triple.Frontier.2019.WEB-DLRip(AVC).OlLanDGroup.mkv2.45 GB

Показать еще раздачи по запросу тройная:
2019-03-16 U Тройная граница / Triple Frontier (2019) WEB-DLRip 2160p | 4K | HDR | D | Невафильм 19.81 GB ↑ 110 ↓ 100
2019-03-16 U Тройная граница / Triple Frontier (2019) WEB-DLRip 2160p | 4K | SDR | D | Невафильм 31.92 GB ↑ 96 ↓ 106
2019-03-16 U Тройная граница / Triple Frontier (2019) WEB-DLRip от Scarabey | Невафильм 2.17 GB ↑ 125 ↓ 39
2019-03-16 U Тройная граница / Triple Frontier (2019) WEB-DL 720p от Scarabey | Невафильм 2.41 GB ↑ 72 ↓ 27
2019-03-15 U Тройная граница / Triple Frontier (2019) WEBRip 720p от k.e.n & MegaPeer | Невафильм 4.37 GB ↑ 149 ↓ 54
2019-03-15 U Тройная граница / Triple Frontier (2019) WEB-DLRip от Generalfilm | КПК | D 477.81 MB ↑ 50 ↓ 20
2019-03-15 U Тройная граница / Triple Frontier (2019) WEB-DLRip от Scarabey | Невафильм 748.37 MB ↑ 79 ↓ 32

Отзывы
Зарегистрируйтесь чтобы добавить комментарий.
Обратная связь
Copyleft ©