↑↓Torrent.by
Поиск
Логин: Регистрация
Пароль: Восстановить пароль
Загрузка...

Госнелл: Суд над серийным убийцей / Gosnell: The Trial of America's Biggest Serial Killer (2018) WEB-DL 1080p | HDRezka Studio

Скачать gosnell-sud-nad-seriynym-ubiycey-the-trial-of-america-s-biggest-serial-killer-2018-web-dl-1080p-hdrezka-studio.torrent
U Магнитная ссылка Размер: 3.79 GB Раздают: 52 Качают: 20 Добавлен: 2019-03-14 06:52:47
Госнелл: Суд над серийным убийцей / Gosnell: The Trial of America's Biggest Serial Killer (2018) WEB-DL 1080p | HDRezka Studio

Название: Госнелл: Суд над серийным убийцей
Оригинальное название: Gosnell: The Trial of America's Biggest Serial Killer
Год выпуска: 2018
Жанр:  Драма, криминал
Режиссер: Ник Сирси
В ролях: Амелия Уайт, Майкл Бич, Дин Кэйн, Ник Сирси, Сирина Фиальо, Сара Моррис, О'Шей Брукс, Эрл Биллингс, Дэймон Карни, Кейт Джонс

О фильме: Фильм основанный на реальных событиях, об ужасных преступлениях и суде над Кермитом Госнеллом, врачом акушером, проводившим незаконные аборты на поздних сроках беременности.

Выпущено: США, Hat Tip Films
Продолжительность: 01:33:39
Перевод: Профессиональный (многоголосый, закадровый) | HDRezka Studio

Файл
Качество: WEB-DL 1080p
Контейнер: MKV
Видео: MPEG-4 AVC, 5221 Кбит/с, 1920x1080, 23.976 Кадр/с
Аудио 1: Русский: AC3, 2 ch, 192 Кбит/с - HDRezka Studio
Аудио 2: Английский: AC3, 6 ch, 384 Кбит/с - Original
Субтитры: Нет

Релиз:


[+] MediaInfo
General
Unique ID                   : 219556790650690530705552010316547154288 (0xA52D1989EC070D87684CFB46B1C8E170)
Complete name               : F:Gosnell.The.Trial.of.Americas.Biggest.Serial.Killer.2019.webdL.108Op.werecut.PROD.mkv
Format                      : Matroska
Format version              : Version 4
File size                   : 3.79 GiB
Duration                    : 1 h 33 min
Overall bit rate            : 5 800 kb/s
Movie name                  : Gosnell The Trial Of Americas Biggest Serial Killer 2019 OT werecut PROD.
Encoded date                : UTC 2019-02-04 15:54:34
Writing application         : mkvmerge v24.0.0 ('Beyond The Pale') 64-bit
Writing library             : libebml v1.3.6 + libmatroska v1.4.9

Video
ID                          : 1
Format                      : AVC
Format/Info                 : Advanced Video Codec
Format profile              : High@L4
Format settings             : CABAC / 4 Ref Frames
Format settings, CABAC      : Yes
Format settings, ReFrames   : 4 frames
Codec ID                    : V_MPEG4/ISO/AVC
Duration                    : 1 h 33 min
Bit rate                    : 5 221 kb/s
Width                       : 1 920 pixels
Height                      : 1 080 pixels
Display aspect ratio        : 16:9
Frame rate mode             : Constant
Frame rate                  : 23.976 FPS
Color space                 : YUV
Chroma subsampling          : 4:2:0
Bit depth                   : 8 bits
Scan type                   : Progressive
Bits/(Pixel*Frame)          : 0.105
Stream size                 : 3.42 GiB (90%)
Language                    : English
Default                     : Yes
Forced                      : No
Color range                 : Limited
Color primaries             : BT.709
Transfer characteristics    : BT.709
Matrix coefficients         : BT.709

Audio #1
ID                          : 2
Format                      : AC-3
Format/Info                 : Audio Coding 3
Commercial name             : Dolby Digital
Codec ID                    : A_AC3
Duration                    : 1 h 33 min
Bit rate mode               : Constant
Bit rate                    : 192 kb/s
Channel(s)                  : 2 channels
Channel layout              : L R
Sampling rate               : 48.0 kHz
Frame rate                  : 31.250 FPS (1536 SPF)
Bit depth                   : 16 bits
Compression mode            : Lossy
Stream size                 : 129 MiB (3%)
Language                    : Russian
Service kind                : Complete Main
Default                     : Yes
Forced                      : Yes

Audio #2
ID                          : 3
Format                      : AC-3
Format/Info                 : Audio Coding 3
Commercial name             : Dolby Digital
Codec ID                    : A_AC3
Duration                    : 1 h 33 min
Bit rate mode               : Constant
Bit rate                    : 384 kb/s
Channel(s)                  : 6 channels
Channel layout              : L R C LFE Ls Rs
Sampling rate               : 48.0 kHz
Frame rate                  : 31.250 FPS (1536 SPF)
Bit depth                   : 16 bits
Compression mode            : Lossy
Stream size                 : 257 MiB (7%)
Language                    : English
Service kind                : Complete Main
Default                     : No
Forced                      : No

Menu
00:00:00.000                : en:1
00:06:49.409                : en:2
00:12:04.097                : en:3
00:19:20.616                : en:4
00:26:43.724                : en:5
00:32:57.472                : en:6
00:39:54.931                : en:7
00:45:20.798                : en:8
00:52:07.578                : en:9
00:57:29.690                : en:10
01:02:18.061                : en:11
01:08:18.253                : en:12
01:15:09.162                : en:13
01:18:30.488                : en:14
01:21:26.288                : en:15
01:26:24.085                : en:16



Скриншоты:
[+] Всего файлов в раздаче - 1:
Gosnell.The.Trial.of.Americas.Biggest.Serial.Killer.2019.webdL.108Op.werecut.PROD.mkv3.79 GB

Отзывы
Зарегистрируйтесь чтобы добавить комментарий.
Обратная связь
Copyleft ©