↑↓Torrent.by
Поиск
Логин: Регистрация
Пароль: Восстановить пароль
Загрузка...

Две королевы / Mary Queen of Scots (2018) BDRip-AVC от OlLanDGroup | iTunes

Скачать dve-korolevy-mary-queen-of-scots-2018-bdrip-avc-ot-ollandgroup-itunes.torrent
U Магнитная ссылка Размер: 2.32 GB Раздают: 112 Качают: 37 Добавлен: 2019-03-14 10:48:13
Две королевы / Mary Queen of Scots (2018) BDRip-AVC от OlLanDGroup | iTunes

Две королевы / Mary Queen of Scots
«Две сестры — одна судьба»

Год выпуска: 2018
Страна: Великобритания, США
Производство: Focus Features, Perfect World Pictures, Working Title Films
Жанр:  Драма, биография, история

Режиссёр: Джози Рурк
В ролях: Сирша Ронан, Марго Робби, Джек Лауден, Джо Элвин, Дэвид Теннант, Гай Пирс, Анджела Бэйн, Ричард Кэнт, Гай Риз, Том Петти

Перевод: Дублированный | [iTunes]
Субтитры: Русские (форс., полные), английские (форс. вшитые на франц. речь, полные, SDH)
Реклама: Отсутствует

Описание: 1561 год, после смерти молодого мужа Франциска 18-летняя Мария Стюарт возвращается в Шотландию. Она католичка и по крови имеет право претендовать на престол Англии, чем изрядно нервирует нынешнюю протестантскую королеву Елизавету I. Прислушавшись к советникам, королева отправляет к Марии делегацию, в состав которой входит фаворит Елизаветы граф Роберт Дадли, по мнению большинства, — идеальный кандидат в супруги Марии.

Качество: BDRip-AVC | BDRemux | Mary.Queen.of.Scots.2018.1080p.BluRay.REMUX.AVC.DTS-HD.MA.TrueHD.7.1.Atmos-FGT
Продолжительность: 02:03:55

Формат: MKV
Видео кодек: MPEG-4 AVC
Аудио кодек: AC3
Видео: 1024x428 (2.40:1), 23,976 fps, x264 ~1 849 kbps avg, 0.176 bit/pixel
Аудио #1: 48 kHz, AC3 Dolby Digital Plus, 3/2 (L,C,R,l,r) + LFE ch, ~384.00 kbps avg | RUS (iTunes)
Аудио #2: 48 kHz, AC3 Dolby Digital Plus, 3/2 (L,C,R,l,r) + LFE ch, ~448.00 kbps avg | ENG

Дата премьеры (мир): 15 ноября 2018
Дата премьеры (РФ): 17 января 2019, «UPI»
Цифровой релиз: 14 марта 2019, «Universal»

Релиз:


[+] MediaInfo

Общее
Уникальный идентификатор                 : 151182862543805765042805736115287130663 (0x71BCC29CCDA96FBDD30DDD38EDEC8227)
Полное имя                               : F:OlLanDGroupMary.Queen.of.Scots.2018.BDRip(AVC).OlLanDGroup.mkv
Формат                                   : Matroska
Версия формата                           : Version 4 / Version 2
Размер файла                             : 2,32 Гбайт
Продолжительность                        : 2 ч. 3 м.
Общий поток                              : 2682 Кбит/сек
Название фильма                          : Mary.Queen.of.Scots.2018   #TorpedoUK@
Дата кодирования                         : UTC 2019-03-14 00:39:46
Программа кодирования                    : mkvmerge v29.0.0 ('Like It Or Not') 64-bit
Библиотека кодирования                   : libebml v1.3.6 + libmatroska v1.4.9

Видео
Идентификатор                            : 1
Формат                                   : AVC
Формат/Информация                        : Advanced Video Codec
Профиль формата                          : High@L4.1
Параметр CABAC формата                   : Да
Параметр ReFrames формата                : 10 кадров
Идентификатор кодека                     : V_MPEG4/ISO/AVC
Продолжительность                        : 2 ч. 3 м.
Битрейт                                  : 1849 Кбит/сек
Ширина                                   : 1024 пикселя
Высота                                   : 428 пикселей
Соотношение сторон                       : 2,40:1
Режим частоты кадров                     : Постоянный
Частота кадров                           : 23,976 (24000/1001) кадра/сек
Цветовое пространство                    : YUV
Субдискретизация насыщенности            : 4:2:0
Битовая глубина                          : 8 бит
Тип развёртки                            : Прогрессивная
Бит/(Пиксели*Кадры)                      : 0.176
Размер потока                            : 1,60 Гбайт (69%)
Библиотека кодирования                   : x264 core 146 r2538 121396c
Настройки программы                      : cabac=1 / ref=10 / deblock=1:-2:-3 / analyse=0x3:0x113 / me=umh / subme=11 / psy=1 / psy_rd=0.97:0.05 / mixed_ref=1 / me_range=48 / chroma_me=1 / trellis=2 / 8x8dct=1 / cqm=0 / deadzone=21,11 / fast_pskip=1 / chroma_qp_offset=-3 / threads=6 / lookahead_threads=1 / sliced_threads=0 / nr=0 / decimate=1 / interlaced=0 / bluray_compat=0 / constrained_intra=0 / bframes=11 / b_pyramid=2 / b_adapt=2 / b_bias=0 / direct=3 / weightb=1 / open_gop=0 / weightp=2 / keyint=240 / keyint_min=23 / scenecut=40 / intra_refresh=0 / rc_lookahead=40 / rc=2pass / mbtree=0 / bitrate=1849 / ratetol=1.0 / qcomp=0.60 / qpmin=0 / qpmax=69 / qpstep=4 / cplxblur=20.0 / qblur=0.5 / vbv_maxrate=50000 / vbv_bufsize=62500 / nal_hrd=none / filler=0 / ip_ratio=1.40 / pb_ratio=1.30 / aq=1:1.00
Язык                                     : English
Default                                  : Да
Forced                                   : Нет

Аудио #1
Идентификатор                            : 2
Формат                                   : AC-3
Формат/Информация                        : Audio Coding 3
Расширение режима                        : CM (complete main)
Параметр Endianness формата              : Big
Идентификатор кодека                     : A_AC3
Продолжительность                        : 2 ч. 3 м.
Вид битрейта                             : Постоянный
Битрейт                                  : 384 Кбит/сек
Каналы                                   : 6 каналов
Расположение каналов                     : Front: L C R, Side: L R, LFE
Частота                                  : 48,0 КГц
Частота кадров                           : 31,250 кадров/сек (1536 spf)
Битовая глубина                          : 16 бит
Метод сжатия                             : С потерями
Размер потока                            : 340 Мбайт (14%)
Заголовок                                : DUB [iTunes]
Язык                                     : Russian
Default                                  : Да
Forced                                   : Нет

Аудио #2
Идентификатор                            : 3
Формат                                   : AC-3
Формат/Информация                        : Audio Coding 3
Расширение режима                        : CM (complete main)
Параметр Endianness формата              : Big
Идентификатор кодека                     : A_AC3
Продолжительность                        : 2 ч. 3 м.
Вид битрейта                             : Постоянный
Битрейт                                  : 448 Кбит/сек
Каналы                                   : 6 каналов
Расположение каналов                     : Front: L C R, Side: L R, LFE
Частота                                  : 48,0 КГц
Частота кадров                           : 31,250 кадров/сек (1536 spf)
Битовая глубина                          : 16 бит
Метод сжатия                             : С потерями
Размер потока                            : 397 Мбайт (17%)
Заголовок                                : [Original]
Язык                                     : English
Default                                  : Нет
Forced                                   : Нет

Текст #1
Идентификатор                            : 4
Формат                                   : UTF-8
Идентификатор кодека                     : S_TEXT/UTF8
Идентификатор кодека/Информация          : UTF-8 Plain Text
Продолжительность                        : 1 ч. 56 м.
Битрейт                                  : 2 бит/сек
Count of elements                        : 22
Размер потока                            : 1,80 Кбайт (0%)
Заголовок                                : Forced
Язык                                     : Russian
Default                                  : Да
Forced                                   : Нет

Текст #2
Идентификатор                            : 5
Формат                                   : UTF-8
Идентификатор кодека                     : S_TEXT/UTF8
Идентификатор кодека/Информация          : UTF-8 Plain Text
Продолжительность                        : 1 ч. 56 м.
Битрейт                                  : 74 бит/сек
Count of elements                        : 1165
Размер потока                            : 63,9 Кбайт (0%)
Заголовок                                : Full
Язык                                     : Russian
Default                                  : Нет
Forced                                   : Нет

Текст #3
Идентификатор                            : 6
Формат                                   : UTF-8
Идентификатор кодека                     : S_TEXT/UTF8
Идентификатор кодека/Информация          : UTF-8 Plain Text
Продолжительность                        : 1 ч. 53 м.
Битрейт                                  : 42 бит/сек
Count of elements                        : 1127
Размер потока                            : 35,0 Кбайт (0%)
Заголовок                                : Full
Язык                                     : English
Default                                  : Нет
Forced                                   : Нет

Текст #4
Идентификатор                            : 7
Формат                                   : UTF-8
Идентификатор кодека                     : S_TEXT/UTF8
Идентификатор кодека/Информация          : UTF-8 Plain Text
Продолжительность                        : 1 ч. 54 м.
Битрейт                                  : 47 бит/сек
Count of elements                        : 1369
Размер потока                            : 39,9 Кбайт (0%)
Заголовок                                : SDH
Язык                                     : English
Default                                  : Нет
Forced                                   : Нет

Меню
00:00:00.000                             : en:Chapter 01
00:06:10.536                             : en:Chapter 02
00:10:38.679                             : en:Chapter 03
00:16:07.091                             : en:Chapter 04
00:21:06.098                             : en:Chapter 05
00:24:59.289                             : en:Chapter 06
00:30:21.736                             : en:Chapter 07
00:39:02.840                             : en:Chapter 08
00:44:19.657                             : en:Chapter 09
00:51:17.991                             : en:Chapter 10
01:00:02.599                             : en:Chapter 11
01:04:18.855                             : en:Chapter 12
01:12:19.585                             : en:Chapter 13
01:18:06.973                             : en:Chapter 14
01:26:53.666                             : en:Chapter 15
01:31:19.474                             : en:Chapter 16
01:38:32.781                             : en:Chapter 17
01:42:30.185                             : en:Chapter 18
01:51:35.397                             : en:Chapter 19
01:56:53.089                             : en:Chapter 20



Скриншоты:
[+] Всего файлов в раздаче - 1:
Mary.Queen.of.Scots.2018.BDRip(AVC).OlLanDGroup.mkv2.32 GB

Показать еще раздачи по запросу королевы:
2019-03-14 U Две королевы / Mary Queen of Scots (2018) BDRip от MegaPeer | iTunes 2.13 GB ↑ 91 ↓ 31
2019-03-14 U Две королевы / Mary Queen of Scots (2018) BDRip от MegaPeer | iTunes 1.46 GB ↑ 80 ↓ 51
2019-03-14 U Две королевы / Mary Queen of Scots (2018) BDRip 720p | iTunes 4.23 GB ↑ 75 ↓ 69
2019-03-14 U Две королевы / Mary Queen of Scots (2018) BDRip 1080p | iTunes 7.58 GB ↑ 148 ↓ 103
2019-03-14 U Две королевы / Mary Queen of Scots (2018) BDRip | iTunes 1.46 GB ↑ 210 ↓ 75
2019-02-19 U Две королевы / Mary Queen of Scots (2018) WEBRip 720p | L2 2.77 GB ↑ 174 ↓ 53
2019-02-19 U Две королевы / Mary Queen of Scots (2018) WEBRip | L2 1.72 GB ↑ 127 ↓ 49

Отзывы
Зарегистрируйтесь чтобы добавить комментарий.
Обратная связь
Copyleft ©