↑↓Torrent.by
Поиск
Логин: Регистрация
Пароль: Восстановить пароль
Загрузка...

Мылодрама [S01] (2019) WEB-DLRip от GeneralFilm

Скачать mylodrama-s01-2019-web-dlrip-ot-generalfilm.torrent
U Магнитная ссылка Размер: 3.13 GB Раздают: 80 Качают: 56 Добавлен: 2019-03-14 10:48:42
Мылодрама [S01] (2019) WEB-DLRip от GeneralFilm

Оригинальное название: Мылодрама
Год выпуска: 2019
Жанр:  Комедия
Выпущено: Россия, Legio Felix по заказу канала Пятница
Режиссер: Илья Куликов
В ролях: Сергей Бурунов, Ростислав Бершауэр, Григорий Калинин, Юрий Грубник, Маруся Климова, Анна Котова-Дерябина, Кирилл Мелехов, Ольга Дибцева, Сергей Штатнов, Евгений Сармонт, Павел Мисаилов

О фильме: Чтобы обрушить акции телеканала, совет директоров принимает решение посадить в кресло генерального директора автозаправщика-недотепу и доверить ему съемки сериала. В короткие сроки горе-начальнику удается создать хаос в эфире и установить свои порядки в медиабизнесе. Но неожиданно сериал, который по плану должен был стать величайшим провалом, начинает иметь грандиозный успех…

Качество: WEB-DLRip
Видео: XviD build 73, 720x304 (2.37:1), 25.000 fps, 1600 Kbps (0.290 bit/pixel)
Аудио: 48.0 kHz, AC3 2ch, 192 kbps
Продолжительность: 9 x ~ 00:25:00
Перевод: Не требуется
Cубтитры: нет
Внимание! Присутствует ненормативная лексика

Релиз:


[+] MediaInfo

General
Complete name               : D:RazdachiMylodrama.Bez.Cenzury.2019.WEBRip.GeneralFilmMylodrama.Bez.e01.avi
Format                      : AVI
Format/Info                 : Audio Video Interleave
File size                   : 323 MiB
Duration                    : 25 min 1 s
Overall bit rate            : 1 802 kb/s
Writing application         : VirtualDubMod 1.5.10.3 | www.virtualdub-fr.org || (build 2550/release)
Writing library             : VirtualDubMod build 2550/release

Video
ID                          : 0
Format                      : MPEG-4 Visual
Format profile              : Advanced Simple@L5
Format settings             : BVOP1 / Custom Matrix
Format settings, BVOP       : 1
Format settings, QPel       : No
Format settings, GMC        : No warppoints
Format settings, Matrix     : Custom
Codec ID                    : XVID
Codec ID/Hint               : XviD
Duration                    : 25 min 1 s
Bit rate                    : 1 600 kb/s
Width                       : 720 pixels
Height                      : 304 pixels
Display aspect ratio        : 2.35:1
Frame rate                  : 25.000 FPS
Color space                 : YUV
Chroma subsampling          : 4:2:0
Bit depth                   : 8 bits
Scan type                   : Progressive
Compression mode            : Lossy
Bits/(Pixel*Frame)          : 0.292
Stream size                 : 286 MiB (89%)
Writing library             : XviD 73

Audio
ID                          : 1
Format                      : AC-3
Format/Info                 : Audio Coding 3
Commercial name             : Dolby Digital
Codec ID                    : 2000
Duration                    : 25 min 1 s
Bit rate mode               : Constant
Bit rate                    : 192 kb/s
Channel(s)                  : 2 channels
Channel layout              : L R
Sampling rate               : 48.0 kHz
Frame rate                  : 31.250 FPS (1536 SPF)
Bit depth                   : 16 bits
Compression mode            : Lossy
Stream size                 : 34.4 MiB (11%)
Alignment                   : Split accross interleaves
Interleave, duration        : 40  ms (1.00 video frame)
Interleave, preload duratio : 500  ms
Service kind                : Complete Main



Скриншоты:
[+] Всего файлов в раздаче - 9:
Mylodrama.Bez.e01.avi322.50 MB
Mylodrama.Bez.e02.avi338.84 MB
Mylodrama.Bez.e03.avi336.99 MB
Mylodrama.Bez.e04.avi351.56 MB
Mylodrama.Bez.e05.avi394.75 MB
Mylodrama.Bez.e06.avi364.81 MB
Mylodrama.Bez.e07.avi347.20 MB
Mylodrama.Bez.e08.avi377.94 MB
Mylodrama.Bez.e09.avi372.07 MB

Показать еще раздачи по запросу мылодрама:
2019-03-09 U Мылодрама [S01] (2019) WEBRip | Без цензуры 2.61 GB ↑ 158 ↓ 66
2019-03-08 U Мылодрама [S01] (2019) WEBRip 720p | Без цензуры 7.52 GB ↑ 161 ↓ 197
2019-03-08 U Мылодрама [S01] (2019) WEBRip от Generalfilm | КПК 937.77 MB ↑ 27 ↓ 11
2019-03-02 U Мылодрама [01-09 из 09] (2019) WEBRip от Files-x 3.28 GB ↑ 151 ↓ 89
2019-03-01 U Мылодрама [01-09 из 09] (2019) WEBRip-AVC от Files-х 3.06 GB ↑ 220 ↓ 175
2019-03-01 U Мылодрама [S01] (2019) WEBRip от GeneralFilm 2.17 GB ↑ 54 ↓ 57
2019-03-01 U Мылодрама [01-09 из 09] (2019) WEBRip 720p от Files-x 1К5.47 GB ↑ 32 ↓ 126

Отзывы
Зарегистрируйтесь чтобы добавить комментарий.
Обратная связь
Copyleft ©