↑↓Torrent.by
Поиск
Логин: Регистрация
Пароль: Восстановить пароль
Загрузка...

Исчезновение / The Vanishing (2018) BDRip 720p | СВ Студия

Скачать ischeznovenie-the-vanishing-2018-bdrip-720p-sv-studiya.torrent
U Магнитная ссылка Размер: 5.66 GB Раздают: 60 Качают: 32 Добавлен: 2019-03-14 10:48:55
Исчезновение / The Vanishing (2018) BDRip 720p | СВ Студия

Исчезновение / The Vanishing

Страна: Великобритания
Производство: G-BASE, Head Gear Films, Kodiak Pictures, Mad As Birds, Metrol Technology
Год выпуска: 2018
Жанр:  триллер, драма, детектив
Продолжительность: 01:47:32

Режиссер: Кристоффер Нюхольм
Авторы сценария: Джо Боун, Селин Джонс
В ролях: Джерард Батлер, Питер Муллан, Коннор Суинделлс, Сёрен Маллинг, Оулавюр Дарри Оулафссон, Гари Льюис, Кен Друри

Описание: Смотрители маяка Джеймс, Томас и Дональд были немногословными, крепкими и неприхотливыми ребятами. В один прекрасный день они нашли на острове клад — ящик золота, немного подумали, и решили его поделить. Они забыли известную истину — у золота всегда найдется хозяин — и это редко бывают тихие и застенчивые люди. А спустя несколько дней на острове не осталось никого…

Фильм основан на реальной истории бесследного исчезновения трех смотрителей маяка на островах Фланнан в 1900 году. Остановившиеся часы, ни следов крови, ни посиневших и разбухших трупов… Тайна исчезновения этих людей до сих пор не раскрыта…

Перевод: Профессиональный (многоголосый, закадровый) | СВ Студия
Субтитры: английские (full + SDH), немецкие (full + SDH), испанские

Качество: BDRip 720p | исходник - Keepers_2018_1080p_USA_Blu-ray_AVC_DTS-HD_MA_5.1-CiNEMATiC
Формат: MKV
Видео кодек: AVC
Аудио кодек: АС3
Видео: 1280x536 (2.40:1), 23.976 fps, MPEG-4 AVC ~6 508 kbps avg
Аудио №1: 48.0 kHz, AC3 Dolby Digital, 3/2 (L,C,R,l,r) + LFE ch, ~384 kbps | RUS
Аудио №2: 48.0 kHz, AC3 Dolby Digital, 3/2 (L,C,R,l,r) + LFE ch, ~640 kbps | ENG
Формат субтитров: UTF-8 Plain Text

Дата премьеры (мир): 11 октября 2018
Дата премьеры (РФ): 21 февраля 2019, «Престиж Кино»

Релиз от: TeamHD


[+] Media Info
General
Unique ID                   : 193712393290777933379664544738905355692 (0x91BBA65EC842B3083D145BC132FAF5AC)
Complete name               : The.Vanishing.2018.720p.BluRay.Rus.Eng.TeamHD-SbR .mkv
Format                      : Matroska
Format version              : Version 4
File size                   : 5.66 GiB
Duration                    : 1 h 47 min
Overall bit rate            : 7 535 kb/s
Encoded date                : UTC 2019-03-13 06:57:21
Writing application         : mkvmerge v28.2.0 ('The Awakening') 64-bit
Writing library             : libebml v1.3.6 + libmatroska v1.4.9
Cover                       : Yes
Attachments                 : cover.jpg

Video
ID                          : 1
Format                      : AVC
Format/Info                 : Advanced Video Codec
Format profile              : High@L4.1
Format settings             : CABAC / 12 Ref Frames
Format settings, CABAC      : Yes
Format settings, ReFrames   : 12 frames
Codec ID                    : V_MPEG4/ISO/AVC
Duration                    : 1 h 47 min
Bit rate                    : 6 508 kb/s
Width                       : 1 280 pixels
Height                      : 536 pixels
Display aspect ratio        : 2.40:1
Frame rate mode             : Constant
Frame rate                  : 23.976 (24000/1001) FPS
Color space                 : YUV
Chroma subsampling          : 4:2:0
Bit depth                   : 8 bits
Scan type                   : Progressive
Bits/(Pixel*Frame)          : 0.396
Stream size                 : 4.89 GiB (86%)
Writing library             : x264 core 152 r2851kMod ba24899
Encoding settings           : cabac=1 / ref=12 / deblock=1:-3:-3 / analyse=0x3:0x133 / me=umh / subme=11 / psy=1 / fade_compensate=0.00 / psy_rd=1.03:0.00 / mixed_ref=1 / me_range=32 / chroma_me=1 / trellis=2 / 8x8dct=1 / cqm=0 / deadzone=21,11 / fast_pskip=0 / chroma_qp_offset=-2 / threads=6 / lookahead_threads=1 / sliced_threads=0 / nr=0 / decimate=1 / interlaced=0 / bluray_compat=0 / constrained_intra=0 / bframes=16 / b_pyramid=2 / b_adapt=2 / b_bias=0 / direct=3 / weightb=1 / open_gop=0 / weightp=2 / keyint=250 / keyint_min=23 / scenecut=40 / intra_refresh=0 / rc=crf / mbtree=0 / crf=16.1000 / qcomp=0.63 / qpmin=0 / qpmax=69 / qpstep=4 / ip_ratio=1.30 / pb_ratio=1.20 / aq=1:0.70
Language                    : English
Default                     : Yes
Forced                      : No
Color range                 : Limited
Matrix coefficients         : BT.709

Audio #1
ID                          : 2
Format                      : AC-3
Format/Info                 : Audio Coding 3
Commercial name             : Dolby Digital
Codec ID                    : A_AC3
Duration                    : 1 h 47 min
Bit rate mode               : Constant
Bit rate                    : 384 kb/s
Channel(s)                  : 6 channels
Channel layout              : L R C LFE Ls Rs
Sampling rate               : 48.0 kHz
Frame rate                  : 31.250 FPS (1536 SPF)
Bit depth                   : 16 bits
Compression mode            : Lossy
Stream size                 : 295 MiB (5%)
Title                       : MVO СВ Студия
Language                    : Russian
Service kind                : Complete Main
Default                     : Yes
Forced                      : No

Audio #2
ID                          : 3
Format                      : AC-3
Format/Info                 : Audio Coding 3
Commercial name             : Dolby Digital
Codec ID                    : A_AC3
Duration                    : 1 h 47 min
Bit rate mode               : Constant
Bit rate                    : 640 kb/s
Channel(s)                  : 6 channels
Channel layout              : L R C LFE Ls Rs
Sampling rate               : 48.0 kHz
Frame rate                  : 31.250 FPS (1536 SPF)
Bit depth                   : 16 bits
Compression mode            : Lossy
Stream size                 : 492 MiB (8%)
Language                    : English
Service kind                : Complete Main
Default                     : No
Forced                      : No

Text #1
ID                          : 4
Format                      : UTF-8
Codec ID                    : S_TEXT/UTF8
Codec ID/Info               : UTF-8 Plain Text
Duration                    : 1 h 37 min
Bit rate                    : 26 b/s
Count of elements           : 804
Stream size                 : 18.7 KiB (0%)
Language                    : English
Default                     : No
Forced                      : No

Text #2
ID                          : 5
Format                      : UTF-8
Codec ID                    : S_TEXT/UTF8
Codec ID/Info               : UTF-8 Plain Text
Duration                    : 1 h 38 min
Bit rate                    : 30 b/s
Count of elements           : 969
Stream size                 : 21.9 KiB (0%)
Title                       : SDH
Language                    : English
Default                     : No
Forced                      : No

Text #3
ID                          : 6
Format                      : UTF-8
Codec ID                    : S_TEXT/UTF8
Codec ID/Info               : UTF-8 Plain Text
Duration                    : 1 h 37 min
Bit rate                    : 25 b/s
Count of elements           : 673
Stream size                 : 18.6 KiB (0%)
Language                    : German
Default                     : No
Forced                      : No

Text #4
ID                          : 7
Format                      : UTF-8
Codec ID                    : S_TEXT/UTF8
Codec ID/Info               : UTF-8 Plain Text
Duration                    : 1 h 38 min
Bit rate                    : 28 b/s
Count of elements           : 727
Stream size                 : 20.6 KiB (0%)
Title                       : SDH
Language                    : German
Default                     : No
Forced                      : No

Text #5
ID                          : 8
Format                      : UTF-8
Codec ID                    : S_TEXT/UTF8
Codec ID/Info               : UTF-8 Plain Text
Duration                    : 1 h 39 min
Bit rate                    : 25 b/s
Count of elements           : 801
Stream size                 : 18.5 KiB (0%)
Language                    : Spanish
Default                     : No
Forced                      : No

Menu
00:00:00.000                : :00:00:00.000
00:04:41.031                : :00:04:41.031
00:14:32.789                : :00:14:32.789
00:19:03.684                : :00:19:03.684
00:27:41.827                : :00:27:41.827
00:35:04.019                : :00:35:04.019
00:39:04.592                : :00:39:04.592
00:49:57.578                : :00:49:57.578
00:54:25.762                : :00:54:25.762
01:01:23.013                : :01:01:23.013
01:05:38.226                : :01:05:38.226
01:15:11.966                : :01:15:11.966
01:21:58.747                : :01:21:58.747
01:25:58.820                : :01:25:58.820
01:35:21.382                : :01:35:21.382
01:40:55.800                : :01:40:55.800



Скриншоты:
[+] Всего файлов в раздаче - 1:
The.Vanishing.2018.720p.BluRay.Rus.Eng.TeamHD-SbR .mkv5.66 GB

Показать еще раздачи по запросу исчезновение:
2019-03-23 U Исчезновение / The Vanishing (2018) BDRip 720p | US Transfer | СВ-Студия 5.66 GB ↑ 101 ↓ 61
2019-03-20 U Исчезновение / The Vanishing (2018) BDRip-AVC от OlLanDGroup | US Transfer | СВ-Студия 2.00 GB ↑ 69 ↓ 30
2019-03-20 U Исчезновение / The Vanishing (2018) BDRip от ExKinoRay | P 1.41 GB ↑ 70 ↓ 13
2019-03-19 U Исчезновение / The Vanishing (2018) BDRip от MegaPeer | US Transfer | СВ-Студия 1.46 GB ↑ 57 ↓ 120
2019-03-12 U Исчезновение / The Vanishing (2018) BDRip-AVC от OlLanDGroup | P 1.99 GB ↑ 109 ↓ 27
2019-03-11 U Исчезновение / The Vanishing (2018) BDRip от MegaPeer | СВ-Студия 1.41 GB ↑ 120 ↓ 48
2019-03-10 U Исчезновение / The Vanishing (2018) BDRip от ExKinoRay | P 1.41 GB ↑ 49 ↓ 443

Отзывы
Зарегистрируйтесь чтобы добавить комментарий.
Обратная связь
Copyleft ©