↑↓Torrent.by
Поиск
Логин: Регистрация
Пароль: Восстановить пароль
Загрузка...

Семь ужинов (2019) WEB-DL 1080p | iTunes

Скачать sem-uzhinov-2019-web-dl-1080p-itunes.torrent
U Магнитная ссылка Размер: 3.11 GB Раздают: 518 Качают: 675 Добавлен: 2019-03-14 15:08:06
Семь ужинов (2019) WEB-DL 1080p | iTunes

Название: Семь ужинов
Год выхода: 2019
Жанр: комедия
Режиссер: Кирилл Плетнев
В ролях: Роман Курцын, Полина Максимова, Елена Яковлева, Владимир Ильин, Петар Зекавица, Анастасия Уколова, Вера Гурьева, Александр Лыков

О фильме:
После пяти лет совместной жизни отношения супругов разваливаются: детей нет, любовь остыла, общих интересов практически не осталось. Когда жена просит развод, главный герой вдруг осознает, что не готов отпустить близкого человека и уговаривает жену протестировать будто бы разработанную им научную методику восстановления отношений.

Называется она «Семь ужинов». И если после участия в этом эксперименте девушка не изменит решение, он даст ей развод. Все просто — они должны будут поужинать семь раз. Но выясняется, что каждый раз будут новые вводные — ужин в темноте, ужин без одежды, ужин в присутствии постороннего человека… Жена, уверенная в том, что это лишь наивный повод оттянуть расставание, снисходительно соглашается.

Страна: Россия
Продолжительность: 01:29:44

Файл
Формат: MKV
Видео: 1920x804 at 24.000 fps, MPEG-4 AVC, ~4579 kbps avg
Аудио: Russian: 48 kHz, AC3, 3/2 (L,C,R,l,r) + LFE ch, ~384.00 kbps avg
Cубтитры: нет

Релиз от: george$t


[+] MediaInfo
General
Unique ID                   : 241429929877522863968418572975593611331 (0xB5A1B6907D73E16397E191571455E043)
Complete name               : Семь Ужинов.2019.mkv
Format                      : Matroska
Format version              : Version 2
File size                   : 3.11 GiB
Duration                    : 1 h 29 min
Overall bit rate            : 4 965 kb/s
Encoded date                : UTC 2019-03-14 08:42:26
Writing application         : mkvmerge v7.8.0 ('River Man') 32bit built on Mar 27 2015 16:18:02
Writing library             : libebml v1.3.1 + libmatroska v1.4.2

Video
ID                          : 1
Format                      : AVC
Format/Info                 : Advanced Video Codec
Format profile              : High@L4
Format settings             : CABAC / 5 Ref Frames
Format settings, CABAC      : Yes
Format settings, ReFrames   : 5 frames
Codec ID                    : V_MPEG4/ISO/AVC
Duration                    : 1 h 29 min
Bit rate                    : 4 482 kb/s
Width                       : 1 920 pixels
Height                      : 804 pixels
Display aspect ratio        : 2.40:1
Frame rate mode             : Constant
Frame rate                  : 24.000 FPS
Color space                 : YUV
Chroma subsampling          : 4:2:0
Bit depth                   : 8 bits
Scan type                   : Progressive
Bits/(Pixel*Frame)          : 0.121
Stream size                 : 2.81 GiB (90%)
Title                       : Семь ужинов 2019
Language                    : Russian
Default                     : Yes
Forced                      : No
Color range                 : Limited
Color primaries             : BT.709
Transfer characteristics    : BT.709
Matrix coefficients         : BT.709

Audio
ID                          : 2
Format                      : AC-3
Format/Info                 : Audio Coding 3
Codec ID                    : A_AC3
Duration                    : 1 h 29 min
Bit rate mode               : Constant
Bit rate                    : 384 kb/s
Channel(s)                  : 6 channels
Channel positions           : Front: L C R, Side: L R, LFE
Sampling rate               : 48.0 kHz
Frame rate                  : 31.250 FPS (1536 SPF)
Bit depth                   : 16 bits
Compression mode            : Lossy
Stream size                 : 247 MiB (8%)
Language                    : Russian
Service kind                : Complete Main
Default                     : Yes
Forced                      : No



Скриншоты:
[+] Всего файлов в раздаче - 1:
Семь Ужинов.2019.mkv3.11 GB

Показать еще раздачи по запросу семь:
2019-03-16 U Семь ужинов (2019) WEB-DLRip-AVC | iTunes 1.06 GB ↑ 55 ↓ 25
2019-03-16 U Семь ужинов (2019) WEB-DLRip от Generalfilm | КПК | iTunes 340.83 MB ↑ 50 ↓ 11
2019-03-16 U Семь ужинов (2019) WEB-DLRip от Scarabey | iTunes 1.43 GB ↑ 73 ↓ 32
2019-03-14 U Семь ужинов (2019) WEB-DLRip от GeneralFilm | iTunes 1К745.28 MB ↑ 60 ↓ 82
2018-10-24 U Семь минут в раю / Seven in Heaven (2018) WEBRip 720p | L2 2.22 GB ↑ 63 ↓ 6
2018-10-24 U Семь минут в раю / Seven in Heaven (2018) WEBRip | L2 1.38 GB ↑ 56 ↓ 11
2018-10-12 U Московские тайны. Семь сестер [01-02 из 02] (2018) SATRip-AVC 1.16 GB ↑ 542 ↓ 84

Отзывы
Зарегистрируйтесь чтобы добавить комментарий.
Обратная связь
Copyleft ©