↑↓Torrent.by
Поиск
Логин: Регистрация
Пароль: Восстановить пароль
Загрузка...

Власть / Vice (2018) WEBRip 720p | HDRezka Studio

Скачать vlast-vice-2018-webrip-720p-hdrezka-studio.torrent
U Магнитная ссылка Размер: 5.61 GB Раздают: 199 Качают: 220 Добавлен: 2019-03-14 15:08:30
Власть / Vice (2018) WEBRip 720p | HDRezka Studio

Название: Власть
Оригинальное название: Vice
Год выхода: 2018
Жанр: Драма, комедия, биография, история
Режиссер: Адам МакКей
В ролях: Кристиан Бэйл, Эми Адамс, Стив Карелл, Сэм Рокуэлл, Элисон Пилл, Эдди Марсан, Джастин Кирк, Лиза Гэй Хэмилтон, Джесси Племонс, Билл Кэмп, Дон МакМанус, Лили Рэйб, Шей Уигэм, Стивен Эдли Гуиргис, Камилль Джеймс Харман, Джиллиан Арменанте, Мэттью Джейкобс, ...

О фильме:
Когда миром управляют деньги и связи, один человек может получить безграничное влияние. Уникальный дар убеждения, незаурядный ум и доступ на самые высокие уровни власти позволили ему стать кукловодом среди сильных мира сего. Оставаясь теневым игроком, он навсегда изменил ход истории…

Страна: США
Студия: Annapurna Pictures, Gary Sanchez Productions, Plan B Entertainment
Продолжительность: 02:12:26
Перевод: Профессиональный многоголосый | HDRezka Studio

Файл
Кодек: AVC
Качество: WEBRip 720p | Vice.2018.720p.AMZN.WEBRip.DDP5.1.x264-NTG
Видео: MPEG-4 AVC, 5235 Kбит/с, 1280x544, 23.976 кадр/с
Звук: ► За русскую звуковую дорожку спасибо EFFX
Аудио #1: Русский ( АС3, 2ch, 192 Кбит/с, 48.0 KHz) Профессиональный (многоголосый, закадровый) HDRezka Studio
Аудио #2: Английский ( E-АС3, 6ch, 640 Кбит/с, 48.0 KHz)
Субтитры: английские


[+] MediaInfo
Источник: Vice.2018.720p.AMZN.WEBRip.DDP5.1.x264-NTG
General
Unique ID                      : 206099778986511292680631094838607960323 (0x9B0D5FA37972084AA385D2DE79EF5903)
Complete name                  : Vice.2018.WEBRip.720p.mkv
Format                         : Matroska
Format version                 : Version 4 / Version 2
File size                      : 5.61 GiB
Duration                       : 2 h 12 min
Overall bit rate               : 6 069 kb/s
Encoded date                   : UTC 2019-03-14 08:19:13
Writing application            : mkvmerge v7.1.0 ('Good Love') 64bit built on Jul 27 2014 13:06:55
Writing library                : libebml v1.3.0 + libmatroska v1.4.1

Video
ID                             : 1
Format                         : AVC
Format/Info                    : Advanced Video Codec
Format profile                 : High@L3.1
Format settings, CABAC         : Yes
Format settings, RefFrames     : 4 frames
Codec ID                       : V_MPEG4/ISO/AVC
Duration                       : 2 h 12 min
Bit rate mode                  : Constant
Bit rate                       : 5 235 kb/s
Nominal bit rate               : 6 000 kb/s
Width                          : 1 280 pixels
Height                         : 544 pixels
Display aspect ratio           : 2.35:1
Original display aspect ratio  : 2.35:1
Frame rate mode                : Constant
Frame rate                     : 23.976 (24000/1001) FPS
Color space                    : YUV
Chroma subsampling             : 4:2:0
Bit depth                      : 8 bits
Scan type                      : Progressive
Bits/(Pixel*Frame)             : 0.314
Stream size                    : 4.84 GiB (86%)
Language                       : English
Default                        : Yes
Forced                         : No
Color range                    : Limited
Color primaries                : BT.709
Transfer characteristics       : BT.709
Matrix coefficients            : BT.709

Audio #1
ID                             : 2
Format                         : AC-3
Format/Info                    : Audio Coding 3
Format settings, Endianness    : Big
Codec ID                       : A_AC3
Duration                       : 2 h 11 min
Bit rate mode                  : Constant
Bit rate                       : 192 kb/s
Channel(s)                     : 2 channels
Channel positions              : Front: L R
Sampling rate                  : 48.0 kHz
Frame rate                     : 31.250 FPS (1536 SPF)
Bit depth                      : 16 bits
Compression mode               : Lossy
Stream size                    : 181 MiB (3%)
Title                          : MVO | HDRezka Studio
Language                       : Russian
Service kind                   : Complete Main
Default                        : Yes
Forced                         : No

Audio #2
ID                             : 3
Format                         : E-AC-3
Format/Info                    : Enhanced Audio Coding 3
Format settings, Endianness    : Big
Codec ID                       : A_EAC3
Duration                       : 2 h 12 min
Bit rate mode                  : Constant
Bit rate                       : 640 kb/s
Channel(s)                     : 6 channels
Channel positions              : Front: L C R, Side: L R, LFE
Sampling rate                  : 48.0 kHz
Frame rate                     : 187.500 FPS (256 SPF)
Compression mode               : Lossy
Stream size                    : 606 MiB (11%)
Language                       : English
Service kind                   : Complete Main
Default                        : No
Forced                         : No

Text #1
ID                             : 4
Format                         : UTF-8
Codec ID                       : S_TEXT/UTF8
Codec ID/Info                  : UTF-8 Plain Text
Duration                       : 2 h 10 min
Bit rate                       : 77 b/s
Count of elements              : 2327
Stream size                    : 74.1 KiB (0%)
Language                       : English
Default                        : No
Forced                         : No

Text #2
ID                             : 5
Format                         : UTF-8
Codec ID                       : S_TEXT/UTF8
Codec ID/Info                  : UTF-8 Plain Text
Duration                       : 2 h 11 min
Bit rate                       : 81 b/s
Count of elements              : 2513
Stream size                    : 78.6 KiB (0%)
Title                          : SDH
Language                       : English
Default                        : No
Forced                         : No



Скриншоты:
[+] Всего файлов в раздаче - 1:
Vice.2018.WEBRip.720p.mkv5.61 GB

Показать еще раздачи по запросу власть:
2019-03-16 U Власть / Vice (2018) WEB-DLRip от Scarabey | HDRezka Studio 1.45 GB ↑ 38 ↓ 16
2019-03-16 U Власть / Vice (2018) WEB-DLRip | HDRezka Studio 2.18 GB ↑ 57 ↓ 11
2019-03-15 U Власть / Vice (2018) WEBRip 1080p | HDRezka Studio 9.23 GB ↑ 91 ↓ 77
2019-03-15 U Власть / Vice (2018) WEB-DLRip от MegaPeer | HDRezka Studio 1.46 GB ↑ 213 ↓ 101
2019-03-15 U Власть / Vice (2018) WEB-DL 1080p | HDRezka Studio 4.79 GB ↑ 218 ↓ 63
2019-01-01 U Джереми Хейманс, Генри Тиммс - Новая власть. Какие силы управляют миром (2018) FB2 2.51 MB ↑ 113 ↓ 3
2018-07-03 U Власть в ночном городе / Power [05х01 из 10] (2018) WEB-DL 1080p | Amedia 3.20 GB ↑ 74 ↓ 5

Отзывы
Зарегистрируйтесь чтобы добавить комментарий.
Обратная связь
Copyleft ©