↑↓Torrent.by
Поиск
Логин: Регистрация
Пароль: Восстановить пароль
Загрузка...

Завод (2018) WEB-DL 720p | iTunes

Скачать zavod-2018-web-dl-720p-itunes.torrent
U Магнитная ссылка Размер: 2.28 GB Раздают: 109 Качают: 32 Добавлен: 2019-03-14 19:26:00
Завод (2018) WEB-DL 720p | iTunes

Название: Завод
Год выпуска: 2018
Жанр: Боевик, драма, триллер, криминал
Режиссер: Юрий Быков
В ролях: Денис Шведов, Владислав Абашин, Андрей Смоляков, Александр Бухаров, Дмитрий Куличков, Иван Янковский, Юрий Тарасов, Пётр Баранчеев, Александр Воробьёв, Алексей Комашко, Кирилл Полухин, Александр Логинов, Сергей Сосновский, Борис Невзоров, Олег Алмазов, Александр Баширов, Алексей Фаддеев, Илья Соколовский

О фильме: Закрывают градообразующий завод. Владелец предприятия — олигарх Калугин — банкротит его, чтобы заключить выгодную сделку с иностранцами. Несколько тысяч рабочих остаются на улице без средств к существованию. Все смиренно принимают эту участь, и только пятеро отчаянных мужиков решают отстоять свое и взять хозяина в заложники, чтоб требовать с него деньги. Вожак работяг — Седой, воевавший и раненый в горячей точке, — вместе с товарищами вступает в смертельную схватку с опричником олигарха Туманом и его группой спецов за жизнь Калугина. Исход боя решит, кто прав — богатые или бедные.

Страна: Россия, Армения, Франция
Студия: Kinovista, Forever Films Media, Coda, Sharm Holding
Продолжительность: 01:50:43
Перевод: Не требуется | iTunes

Файл
Качество: WEB-DL 720p
Контейнер: MKV
Видео: MPEG-4 AVC, 1280x532, 2566 Кбит/с, 24.000 fps
Аудио: Русский: AC3, 6 ch, 384 Кбит/с - iTunes
Субтитры: Нет


[+] MediaInfo
General
Unique ID                                : 224754196489244556497263011600713474237 (0xA916156E50CCDAB78A7E43D160F960BD)
Complete name                            : Zavod.2018.WEB-DL.(720p).Getty.mkv
Format                                   : Matroska
Format version                           : Version 4 / Version 2
File size                                : 2.28 GiB
Duration                                 : 1 h 50 min
Overall bit rate                         : 2 952 kb/s
Movie name                               : Zavod.2018.WEB-DL.(720p).Getty
Encoded date                             : UTC 2019-03-13 23:30:02
Writing application                      : mkvmerge v7.8.0 ('River Man') 32bit built on Mar 27 2015 16:18:02
Writing library                          : libebml v1.3.1 + libmatroska v1.4.2

Video
ID                                       : 1
Format                                   : AVC
Format/Info                              : Advanced Video Codec
Format profile                           : High@L4
Format settings, CABAC                   : Yes
Format settings, RefFrames               : 4 frames
Codec ID                                 : V_MPEG4/ISO/AVC
Duration                                 : 1 h 50 min
Bit rate                                 : 2 566 kb/s
Width                                    : 1 280 pixels
Height                                   : 532 pixels
Display aspect ratio                     : 2.40:1
Frame rate mode                          : Constant
Frame rate                               : 24.000 FPS
Color space                              : YUV
Chroma subsampling                       : 4:2:0
Bit depth                                : 8 bits
Scan type                                : Progressive
Bits/(Pixel*Frame)                       : 0.154
Stream size                              : 1.94 GiB (85%)
Default                                  : Yes
Forced                                   : No

Audio
ID                                       : 2
Format                                   : AC-3
Format/Info                              : Audio Coding 3
Format settings, Endianness              : Big
Codec ID                                 : A_AC3
Duration                                 : 1 h 50 min
Bit rate mode                            : Constant
Bit rate                                 : 384 kb/s
Channel(s)                               : 6 channels
Channel positions                        : Front: L C R, Side: L R, LFE
Sampling rate                            : 48.0 kHz
Frame rate                               : 31.250 FPS (1536 SPF)
Bit depth                                : 16 bits
Compression mode                         : Lossy
Stream size                              : 304 MiB (13%)
Service kind                             : Complete Main
Default                                  : Yes
Forced                                   : No



Скриншоты:
[+] Всего файлов в раздаче - 1:
Zavod.2018.WEB-DL.(720p).Getty.mkv2.28 GB

Показать еще раздачи по запросу завод:
2019-03-17 U Завод (2018) WEB-DLRip-AVC от OlLanDGroup | iTunes 1.68 GB ↑ 183 ↓ 42
2019-03-15 U Завод (2018) WEB-DLRip от OlLanDGroup | iTunes 745.45 MB ↑ 68 ↓ 8
2019-03-15 U Завод (2018) WEB-DLRip от ExKinoRay | iTunes 1.46 GB ↑ 54 ↓ 19
2019-03-14 U Завод (2018) WEB-DLRip от MegaPeer | iTunes 1.46 GB ↑ 117 ↓ 54
2019-03-14 U Завод (2018) WEB-DL 1080p | iTunes 4.25 GB ↑ 91 ↓ 43
2019-03-03 U Завод (2018) WEBRip от ExKinoRay 1.46 GB ↑ 111 ↓ 40
2019-03-02 U Завод (2018) WEBRip от Scarabey 745.22 MB ↑ 64 ↓ 22

Отзывы
Зарегистрируйтесь чтобы добавить комментарий.
Обратная связь
Copyleft ©