↑↓Torrent.by
Поиск
Логин: Регистрация
Пароль: Восстановить пароль
Загрузка...

Отель Инферно: Храм боли / Hotel Inferno 2: The Cathedral of Pain (2017) BDRip 1080p | L1

Скачать otel-inferno-hram-boli-hotel-2-the-cathedral-of-pain-2017-bdrip-1080p-l1.torrent
U Магнитная ссылка Размер: 1.97 GB Раздают: 88 Качают: 34 Добавлен: 2019-03-15 07:26:45
Отель Инферно: Храм боли / Hotel Inferno 2: The Cathedral of Pain (2017) BDRip 1080p | L1

Название: Отель Инферно: Храм боли
Оригинальное название: Hotel Inferno 2: The Cathedral of Pain
Год выхода: 2017
Жанр: Ужасы, боевик
Режиссер: Джулио Де Санти, Тициана Машелла
В ролях: Рэйнер Буртон, Роланд Стоун, Джейд Мэттью, Майкл Хоу, Вилмар Зимоза, Кристиан Коррадетти, Кристиан Рива, Энрике Соррес, Сантьяго Ортаес, Марко Обов

О фильме:
Наёмный убийца Фрэнк Зимоза во время выполнения очередного заказа находит ворота в Преисподнюю. Оказавшись в Аду среди демонов и терзаемых ими душ, он отчаянно ищет выход. Его помощницей становится древняя ведьма, сожжённая на костре в незапамятные времена. Руководствуясь советами проклятой души, Фрэнк отыскивает один за другим ключи от всё новых и новых инфернальных уровней, не зная, приближает его очередная схватка к заветному выходу или наоборот — отдаляет от него.
Дополнительно: Строго +18. Это Necrostorm


Страна:
Италия, Necrostorm
Продолжительность: 01:10:00
Перевод: Любительский (одноголосый) [Xixidok]

Файл
Кодек: H.264
Качество: BDRip 1080p
Видео: 1920x1080, 23.976 fps (H.264), High@L5 ~ 3835 kbps, 0.077 bit/pixel
Звук: 44.100 kHz, MPEG Layer 3, 2 ch, ~192.00 kbps avg

Трейлер




[+] MI


Complete name : E:Hotel Inferno 2 Cathedral of Pain.2017.Xixidok.mkv
Format : Matroska
Format version : Version 4 / Version 2
File size : 1.97 GiB
Duration : 1 h 10 min
Overall bit rate : 4 029 kb/s
Movie name : Hotel Inferno II Cathedral of Pain 2017
Encoded date : UTC 2019-03-14 04:51:23
Writing application : mkvmerge v15.0.0 (''Duel with the Devil'') 64-bit
Writing library : libebml v1.3.5 + libmatroska v1.4.5

Video
ID : 1
Format : AVC
Format/Info : Advanced Video Codec
Format profile : High@L5
Format settings : CABAC / 9 Ref Frames
Format settings, CABAC : Yes
Format settings, RefFrames : 9 frames
Codec ID : V_MPEG4/ISO/AVC
Duration : 1 h 10 min
Bit rate : 3 835 kb/s
Width : 1 920 pixels
Height : 1 080 pixels
Display aspect ratio : 16:9
Frame rate mode : Constant
Frame rate : 23.976 (24000/1001) FPS
Color space : YUV
Chroma subsampling : 4:2:0
Bit depth : 8 bits
Scan type : Progressive
Bits/(Pixel*Frame) : 0.077
Stream size : 1.88 GiB (95%)
Writing library : x264 core 142 r2479 dd79a61
Encoding settings : cabac=1 / ref=9 / deblock=1:-3:-3 / analyse=0x3:0x133 / me=umh / subme=9 / psy=1 / psy_rd=1.00:0.00 / mixed_ref=1 / me_range=24 / chroma_me=1 / trellis=2 / 8x8dct=1 / cqm=0 / deadzone=21,11 / fast_pskip=0 / chroma_qp_offset=-2 / threads=6 / lookahead_threads=1 / sliced_threads=0 / nr=0 / decimate=1 / interlaced=0 / bluray_compat=0 / constrained_intra=0 / bframes=6 / b_pyramid=2 / b_adapt=2 / b_bias=0 / direct=3 / weightb=1 / open_gop=0 / weightp=2 / keyint=240 / keyint_min=24 / scenecut=40 / intra_refresh=0 / rc_lookahead=60 / rc=crf / mbtree=1 / crf=19.0 / qcomp=0.60 / qpmin=0 / qpmax=69 / qpstep=4 / ip_ratio=1.40 / aq=1:1.00
Default : Yes
Forced : No
Color range : Limited
Color primaries : BT.709
Transfer characteristics : BT.709
Matrix coefficients : BT.709

Audio
ID : 2
Format : MPEG Audio
Format version : Version 1
Format profile : Layer 3
Codec ID : A_MPEG/L3
Codec ID/Hint : MP3
Duration : 1 h 10 min
Bit rate mode : Constant
Bit rate : 192 kb/s
Channel(s) : 2 channels
Sampling rate : 44.1 kHz
Frame rate : 38.281 FPS (1152 SPF)
Compression mode : Lossy
Delay relative to video : -83 ms
Stream size : 96.4 MiB (5%)
Default : Yes
Forced : No




Скриншоты:
[+] Всего файлов в раздаче - 1:
Hotel Inferno 2 Cathedral of Pain.2017.Xixidok.mkv1.97 GB

Показать еще раздачи по запросу отель:
2019-03-04 U Отель Купидон [01-04 из 04] (2019) WEBRip-AVC от Files-x 2.37 GB ↑ 93 ↓ 35
2018-10-18 U Отель «Артемида» / Hotel Artemis (2018) HDRip от Scarabey | iTunes 1.46 GB ↑ 176 ↓ 31
2018-10-17 U Отель «Артемида» / Hotel Artemis (2018) BDRip-AVC от HELLYWOOD | iTunes 1.41 GB ↑ 41 ↓ 16
2018-10-16 U Отель «Артемида» / Hotel Artemis (2018) BDRip от ExKinoRay | iTunes 1.42 GB ↑ 202 ↓ 50
2018-10-16 U Отель «Артемида» / Hotel Artemis (2018) HDRip-AVC | iTunes 738.81 MB ↑ 90 ↓ 33
2018-10-16 U Отель «Артемида» / Hotel Artemis (2018) HDRip от Generalfilm | КПК | iTunes 355.07 MB ↑ 61 ↓ 14
2018-10-16 U Отель «Артемида» / Hotel Artemis (2018) UHD BDRemux 2160p от TeamHD | 4K | SDR | iTunes 47.36 GB ↑ 82 ↓ 33

Отзывы
Зарегистрируйтесь чтобы добавить комментарий.
Обратная связь
Copyleft ©