↑↓Torrent.by
Поиск
Логин: Регистрация
Пароль: Восстановить пароль
Загрузка...

Шифр [01-08 из 16] (2018) HDTVRip от GeneralFilm

Скачать shifr-01-08-iz-16-2018-hdtvrip-ot-generalfilm.torrent
U Магнитная ссылка Размер: 5.49 GB Раздают: 68 Качают: 101 Добавлен: 2019-03-15 07:27:24
Шифр [01-08 из 16] (2018) HDTVRip от GeneralFilm

Год выпуска: 2018
Жанр:  Детектив
Выпущено: Россия, Леан-М, Sony Pictures Television
Режиссер: Вера Сторожева
В ролях: Марьяна Спивак, Елена Панова, Екатерина Вилкова, Яна Дюбуи, Сергей Пускепалис, Михаил Евланов, Олег Гаас, Светлана Колпакова, Николай Токарев, Дмитрий Мазуров, Виктор Конухин, Виталия Корниенко, Софья Хилькова, Максим Стоянов, Екатерина Лапига, Виктор Добронравов, Николай Качура, Алексей Колган, Нина Дворжецкая, Александра Урсуляк

О фильме: Действие разворачивается в Москве 1956 года и рассказывает историю четырёх женщин, которых связывает военное прошлое: работа в спецотделе ГРУ. Они сходятся вновь, чтобы вести расследования и помогать следственным органам в особо запутанных делах. Обладая феноменальными аналитическими способностями, Ирина, Анна, Софья и Катерина, рискуя собой, а также благополучием собственных семей, ловят преступников, которые угрожают жизни простых людей и всей стране в целом.

Качество: HDTVRip
Видео: XviD, ~ 1800 Кбит/с, 704x384
Аудио: Русский (AC3, 2 ch, 192 Кбит/с)
Продолжительность: 8 х ~ 00:48:00
Перевод: Не требуется
Субтитры: нет

Релиз:


[+] MediaInfo

Общее
Полное имя                               : D:Shifr.HDTVRip.GeneralFilm1.Shifr.HDTVRip.GeneralFilm.avi
Формат                                   : AVI
Формат/Информация                        : Audio Video Interleave
Размер файла                             : 682 Мбайт
Продолжительность                        : 48 м. 3 с.
Общий поток                              : 1982 Кбит/сек

Видео
Идентификатор                            : 0
Формат                                   : MPEG-4 Visual
Профиль формата                          : Advanced Simple@L5
Параметр BVOP формата                    : 1
Параметр QPel формата                    : Нет
Параметр GMC формата                     : Без точки перехода
Параметр матрицы формата                 : Выборочная
Идентификатор кодека                     : XVID
Идентификатор кодека/Подсказка           : XviD
Продолжительность                        : 48 м. 3 с.
Битрейт                                  : 1779 Кбит/сек
Ширина                                   : 704 пикселя
Высота                                   : 384 пикселя
Соотношение сторон                       : 1,85:1
Частота кадров                           : 25,000 кадров/сек
Цветовое пространство                    : YUV
Субдискретизация насыщенности            : 4:2:0
Битовая глубина                          : 8 бит
Тип развёртки                            : Прогрессивная
Метод сжатия                             : С потерями
Бит/(Пиксели*Кадры)                      : 0.263
Размер потока                            : 612 Мбайт (90%)
Библиотека кодирования                   : XviD 1.2.1 (UTC 2008-12-04)

Аудио
Идентификатор                            : 1
Формат                                   : AC-3
Формат/Информация                        : Audio Coding 3
Расширение режима                        : CM (complete main)
Параметр Endianness формата              : Big
Идентификатор кодека                     : 2000
Продолжительность                        : 48 м. 3 с.
Вид битрейта                             : Постоянный
Битрейт                                  : 192 Кбит/сек
Каналы                                   : 2 канала
Расположение каналов                     : Front: L R
Частота                                  : 48,0 КГц
Частота кадров                           : 31,250 кадров/сек (1536 spf)
Битовая глубина                          : 16 бит
Метод сжатия                             : С потерями
Размер потока                            : 66,0 Мбайт (10%)
Выравнивание                             : Соединение по промежуткам
Продолжительность промежутка             : 32  мс. (0,80 видеокадр)




Скриншоты:
[+] Всего файлов в раздаче - 8:
01.Shifr.HDTVRip.GeneralFilm.avi681.54 MB
02.Shifr.HDTVRip.GeneralFilm.avi706.29 MB
03.Shifr.HDTVRip.GeneralFilm.avi691.52 MB
04.Shifr.HDTVRip.GeneralFilm.avi699.15 MB
05.Shifr.HDTVRip.GeneralFilm.avi703.74 MB
06.Shifr.HDTVRip.GeneralFilm.avi719.85 MB
07.Shifr.HDTVRip.GeneralFilm.avi723.90 MB
08.Shifr.HDTVRip.GeneralFilm.avi700.05 MB

Показать еще раздачи по запросу шифр:
Вчера U Шифр [01х01-10 из 16] (2019) SATRip-AVC 6.17 GB ↑ 1 ↓ 6
2019-03-16 U Шифр [01-08 из 16] (2018) WEBRip от GeneralFilm 4.35 GB ↑ 118 ↓ 95
2019-03-16 U Шифр [01-08 из 16] (2018) WEBRip от Files-x 5.06 GB ↑ 40 ↓ 49
2019-03-15 U Шифр [01-08 из 16] (2018) HDTVRip 720p от GeneralFilm 10.23 GB ↑ 106 ↓ 283
2019-03-15 U Шифр [01-08 из 16] (2018) HDTV 1080i от GeneralFilm 18.57 GB ↑ 57 ↓ 74
2019-03-15 U Шифр [01-08 из 16] (2018) HDTVRip-AVC от Files-x 6.08 GB ↑ 66 ↓ 173
2019-03-14 U Шифр [01-06 из 16] (2018) HDTV 1080i от GeneralFilm 14.26 GB ↑ 91 ↓ 134

Отзывы
Зарегистрируйтесь чтобы добавить комментарий.
Обратная связь
Copyleft ©