↑↓Torrent.by
Поиск
Логин: Регистрация
Пароль: Восстановить пароль
Загрузка...

Шифр [01-08 из 16] (2018) HDTV 1080i от GeneralFilm

Скачать shifr-01-08-iz-16-2018-hdtv-1080i-ot-generalfilm.torrent
U Магнитная ссылка Размер: 18.57 GB Раздают: 58 Качают: 74 Добавлен: 2019-03-15 07:27:30
Шифр [01-08 из 16] (2018) HDTV 1080i от GeneralFilm

Год выпуска: 2018
Жанр:  Детектив
Выпущено: Россия, Леан-М, Sony Pictures Television
Режиссер: Вера Сторожева
В ролях: Марьяна Спивак, Елена Панова, Екатерина Вилкова, Яна Дюбуи, Сергей Пускепалис, Михаил Евланов, Олег Гаас, Светлана Колпакова, Николай Токарев, Дмитрий Мазуров, Виктор Конухин, Виталия Корниенко, Софья Хилькова, Максим Стоянов, Екатерина Лапига, Виктор Добронравов, Николай Качура, Алексей Колган, Нина Дворжецкая, Александра Урсуляк

О фильме: Действие разворачивается в Москве 1956 года и рассказывает историю четырёх женщин, которых связывает военное прошлое: работа в спецотделе ГРУ. Они сходятся вновь, чтобы вести расследования и помогать следственным органам в особо запутанных делах. Обладая феноменальными аналитическими способностями, Ирина, Анна, Софья и Катерина, рискуя собой, а также благополучием собственных семей, ловят преступников, которые угрожают жизни простых людей и всей стране в целом.

Качество: HDTV (1080i)
Видео: MPEG-TS AVC, ~ 5100 Кбит/с, 1920x1080
Аудио: Русский (AC3, 2 ch, 384 Кбит/с), (MP2, 2 ch, 192 Кбит/с)
Продолжительность: 8 х ~ 00:48:00
Перевод: Не требуется
Субтитры: нет

Релиз:


[+] MediaInfo

Общее
Идентификатор                            : 1 (0x1)
Полное имя                               : D:ЗаписьShifr.HDTV(1080i).GeneralFilm1.Shifr.HDTV(1080i).GeneralFilm.ts
Формат                                   : MPEG-TS
Размер файла                             : 1,98 Гбайт
Продолжительность                        : 48 м. 3 с.
Режим общего битрейта                    : Переменный
Общий поток                              : 5888 Кбит/сек

Видео
Идентификатор                            : 1904 (0x770)
Идентификатор меню                       : 80 (0x50)
Формат                                   : AVC
Формат/Информация                        : Advanced Video Codec
Профиль формата                          : High@L4
Параметр CABAC формата                   : Да
Параметр ReFrames формата                : 3 кадра
Идентификатор кодека                     : 27
Продолжительность                        : 48 м. 3 с.
Битрейт                                  : 5015 Кбит/сек
Ширина                                   : 1920 пикселей
Высота                                   : 1080 пикселей
Соотношение сторон                       : 16:9
Частота кадров                           : 25,000 кадров/сек
Стандарт вещания                         : Component
Цветовое пространство                    : YUV
Субдискретизация насыщенности            : 4:2:0
Битовая глубина                          : 8 бит
Тип развёртки                            : Чересстрочная
Метод сохранения типа развёртки          : Раздельные поля
Порядок развёртки                        : Верхнее поле первое
Бит/(Пиксели*Кадры)                      : 0.097
Размер потока                            : 1,68 Гбайт (85%)
Цветовой диапазон                        : Limited
Основные цвета                           : BT.709
Характеристики трансфера                 : BT.709
Коэффициенты матрицы                     : BT.709

Аудио #1
Идентификатор                            : 2904 (0xB58)
Идентификатор меню                       : 80 (0x50)
Формат                                   : AC-3
Формат/Информация                        : Audio Coding 3
Расширение режима                        : CM (complete main)
Параметр Endianness формата              : Big
Идентификатор кодека                     : 6
Продолжительность                        : 48 м. 3 с.
Вид битрейта                             : Постоянный
Битрейт                                  : 384 Кбит/сек
Каналы                                   : 6 каналов
Расположение каналов                     : Front: L C R, Side: L R, LFE
Частота                                  : 48,0 КГц
Частота кадров                           : 31,250 кадров/сек (1536 spf)
Битовая глубина                          : 16 бит
Метод сжатия                             : С потерями
Задержка видео                           : -40 мс.
Размер потока                            : 132 Мбайт (7%)
Язык                                     : Russian

Аудио #2
Идентификатор                            : 2905 (0xB59)
Идентификатор меню                       : 80 (0x50)
Формат                                   : MPEG Audio
Версия формата                           : Version 1
Профиль формата                          : Layer 2
Идентификатор кодека                     : 3
Продолжительность                        : 48 м. 3 с.
Вид битрейта                             : Постоянный
Битрейт                                  : 192 Кбит/сек
Каналы                                   : 2 канала
Частота                                  : 48,0 КГц
Метод сжатия                             : С потерями
Задержка видео                           : -40 мс.
Размер потока                            : 66,0 Мбайт (3%)
Язык                                     : Russian

Общее
Идентификатор                            : 1 (0x1)
Полное имя                               : D:ЗаписьShifr.HDTV(1080i).GeneralFilm2.Shifr.HDTV(1080i).GeneralFilm.ts
Формат                                   : MPEG-TS
Размер файла                             : 2,13 Гбайт
Продолжительность                        : 49 м. 37 с.
Режим общего битрейта                    : Переменный
Общий поток                              : 6134 Кбит/сек

Видео
Идентификатор                            : 1904 (0x770)
Идентификатор меню                       : 80 (0x50)
Формат                                   : AVC
Формат/Информация                        : Advanced Video Codec
Профиль формата                          : High@L4
Параметр CABAC формата                   : Да
Параметр ReFrames формата                : 3 кадра
Идентификатор кодека                     : 27
Продолжительность                        : 49 м. 37 с.
Битрейт                                  : 5249 Кбит/сек
Ширина                                   : 1920 пикселей
Высота                                   : 1080 пикселей
Соотношение сторон                       : 16:9
Частота кадров                           : 25,000 кадров/сек
Стандарт вещания                         : Component
Цветовое пространство                    : YUV
Субдискретизация насыщенности            : 4:2:0
Битовая глубина                          : 8 бит
Тип развёртки                            : Чересстрочная
Метод сохранения типа развёртки          : Раздельные поля
Порядок развёртки                        : Верхнее поле первое
Бит/(Пиксели*Кадры)                      : 0.101
Размер потока                            : 1,82 Гбайт (86%)
Цветовой диапазон                        : Limited
Основные цвета                           : BT.709
Характеристики трансфера                 : BT.709
Коэффициенты матрицы                     : BT.709

Аудио #1
Идентификатор                            : 2904 (0xB58)
Идентификатор меню                       : 80 (0x50)
Формат                                   : AC-3
Формат/Информация                        : Audio Coding 3
Расширение режима                        : CM (complete main)
Параметр Endianness формата              : Big
Идентификатор кодека                     : 6
Продолжительность                        : 49 м. 37 с.
Вид битрейта                             : Постоянный
Битрейт                                  : 384 Кбит/сек
Каналы                                   : 6 каналов
Расположение каналов                     : Front: L C R, Side: L R, LFE
Частота                                  : 48,0 КГц
Частота кадров                           : 31,250 кадров/сек (1536 spf)
Битовая глубина                          : 16 бит
Метод сжатия                             : С потерями
Задержка видео                           : -40 мс.
Размер потока                            : 136 Мбайт (6%)
Язык                                     : Russian

Аудио #2
Идентификатор                            : 2905 (0xB59)
Идентификатор меню                       : 80 (0x50)
Формат                                   : MPEG Audio
Версия формата                           : Version 1
Профиль формата                          : Layer 2
Идентификатор кодека                     : 3
Продолжительность                        : 49 м. 37 с.
Вид битрейта                             : Постоянный
Битрейт                                  : 192 Кбит/сек
Каналы                                   : 2 канала
Частота                                  : 48,0 КГц
Метод сжатия                             : С потерями
Задержка видео                           : -40 мс.
Размер потока                            : 68,2 Мбайт (3%)
Язык                                     : Russian




Скриншоты:
[+] Всего файлов в раздаче - 8:
01.Shifr.HDTV(1080i).GeneralFilm.ts1.98 GB
02.Shifr.HDTV(1080i).GeneralFilm.ts2.13 GB
03.Shifr.HDTV(1080i).GeneralFilm.ts2.24 GB
04.Shifr.HDTV(1080i).GeneralFilm.ts2.27 GB
05.Shifr.HDTV(1080i).GeneralFilm.ts2.80 GB
06.Shifr.HDTV(1080i).GeneralFilm.ts2.85 GB
07.Shifr.HDTV(1080i).GeneralFilm.ts2.25 GB
08.Shifr.HDTV(1080i).GeneralFilm.ts2.06 GB

Показать еще раздачи по запросу шифр:
Сегодня U Шифр [01х01-10 из 16] (2019) SATRip-AVC 6.17 GB ↑ 0 ↓ 7
2019-03-16 U Шифр [01-08 из 16] (2018) WEBRip от GeneralFilm 4.35 GB ↑ 118 ↓ 96
2019-03-16 U Шифр [01-08 из 16] (2018) WEBRip от Files-x 5.06 GB ↑ 40 ↓ 49
2019-03-15 U Шифр [01-08 из 16] (2018) HDTVRip 720p от GeneralFilm 10.23 GB ↑ 105 ↓ 282
2019-03-15 U Шифр [01-08 из 16] (2018) HDTVRip от GeneralFilm 5.49 GB ↑ 68 ↓ 101
2019-03-15 U Шифр [01-08 из 16] (2018) HDTVRip-AVC от Files-x 6.08 GB ↑ 66 ↓ 173
2019-03-14 U Шифр [01-06 из 16] (2018) HDTV 1080i от GeneralFilm 14.26 GB ↑ 91 ↓ 134

Отзывы
Зарегистрируйтесь чтобы добавить комментарий.
Обратная связь
Copyleft ©