↑↓Torrent.by
Поиск
Логин: Регистрация
Пароль: Восстановить пароль
Загрузка...

Уровень 16 / Level 16 (2018) WEB-DL 1080p от OlLanDGroup | HDRezka Studio

Скачать uroven-16-level-2018-web-dl-1080p-ot-ollandgroup-hdrezka-studio.torrent
U Магнитная ссылка Размер: 3.66 GB Раздают: 59 Качают: 34 Добавлен: 2019-03-15 07:27:43
Уровень 16 / Level 16 (2018) WEB-DL 1080p от OlLanDGroup | HDRezka Studio

Уровень 16 / Level 16
«Purity has a Price»

Год выпуска: 2018
Страна: Канада
Производство: Markham Street Films
Жанр:  Фантастика, триллер

Режиссёр: Данишка Эстерхази
В ролях: Кэти Дуглас, Селина Мартин, Сара Каннинг, Питер Аутербридж, Амалия Уильямсон, Кейт Виккери, Сара Беттенкур-ДаСилва, Джоэль Фэрроу, Мари Карьер Глисон, Джозетт Хэлперт

Перевод: Профессиональный многоголосый | [HDRezka Studio]
Субтитры: Английские (полные, SDH)
Реклама: Отсутствует

Описание: Где-то в Белоруссии... Шестнадцатилетняя Вивьен оказалась в ловушке в Академии Весталис, похожей на тюрьму, школе-интернате, в котором девушек обучают быть идеальными женщинами. Преодоление последнего, 16-го, уровня программы ведёт к удочерению самых прилежных учениц статусной семьей... или к ужасной развязке?

Качество: WEB-DL 1080p | iTunes Version |
Продолжительность: 01:42:04

Формат: MKV
Видео кодек: MPEG-4 AVC
Аудио кодек: AC3
Видео: 1920x796 (2.40:1), 23,976 fps, x264 ~4 562 kbps avg, 0.124 bit/pixel
Аудио #1: 48 kHz, AC3 Dolby Digital, 2 (L,R) ch, ~192.00 kbps avg | RUS (HDRezka Studio)
Аудио #2: 48 kHz, AC3 Dolby Digital, 3/2 (L,C,R,l,r) + LFE ch, ~384.00 kbps avg | ENG

Дата премьеры (мир): 23 января 2018
Дата премьеры (РФ):
Цифровой релиз:

Релиз:


[+] MediaInfo

Общее
Уникальный идентификатор                 : 62481619067215531088274404919073224894 (0x2F0185A93B8C46D2F4F8A595ED3AB8BE)
Полное имя                               : F:OlLanDGroupLevel.16.2018.WEB-DL(1080p).OlLanDGroup.mkv
Формат                                   : Matroska
Версия формата                           : Version 4 / Version 2
Размер файла                             : 3,66 Гбайт
Продолжительность                        : 1 ч. 42 м.
Общий поток                              : 5140 Кбит/сек
Название фильма                          : Level.16.2018   #TorpedoUK#
Дата кодирования                         : UTC 2019-03-15 02:30:20
Программа кодирования                    : mkvmerge v29.0.0 ('Like It Or Not') 64-bit
Библиотека кодирования                   : libebml v1.3.6 + libmatroska v1.4.9

Видео
Идентификатор                            : 1
Формат                                   : AVC
Формат/Информация                        : Advanced Video Codec
Профиль формата                          : High@L4
Параметр CABAC формата                   : Да
Параметр ReFrames формата                : 5 кадров
Идентификатор кодека                     : V_MPEG4/ISO/AVC
Продолжительность                        : 1 ч. 42 м.
Битрейт                                  : 4562 Кбит/сек
Ширина                                   : 1920 пикселей
Высота                                   : 796 пикселей
Соотношение сторон                       : 2,40:1
Режим частоты кадров                     : Постоянный
Частота кадров                           : 23,976 (23976/1000) кадра/сек
Цветовое пространство                    : YUV
Субдискретизация насыщенности            : 4:2:0
Битовая глубина                          : 8 бит
Тип развёртки                            : Прогрессивная
Бит/(Пиксели*Кадры)                      : 0.124
Размер потока                            : 3,25 Гбайт (89%)
Заголовок                                : Level.16.2018.1080p.WEB-DL.DD5.1.H264-FGT
Язык                                     : English
Default                                  : Да
Forced                                   : Нет
Цветовой диапазон                        : Limited
Основные цвета                           : BT.709
Характеристики трансфера                 : BT.709
Коэффициенты матрицы                     : BT.709

Аудио #1
Идентификатор                            : 2
Формат                                   : AC-3
Формат/Информация                        : Audio Coding 3
Расширение режима                        : CM (complete main)
Параметр Endianness формата              : Big
Идентификатор кодека                     : A_AC3
Продолжительность                        : 1 ч. 42 м.
Вид битрейта                             : Постоянный
Битрейт                                  : 192 Кбит/сек
Каналы                                   : 2 канала
Расположение каналов                     : Front: L R
Частота                                  : 48,0 КГц
Частота кадров                           : 31,250 кадров/сек (1536 spf)
Битовая глубина                          : 16 бит
Метод сжатия                             : С потерями
Задержка видео                           : -42 мс.
Размер потока                            : 140 Мбайт (4%)
Заголовок                                : MVO [HDRezka Studio]
Язык                                     : Russian
Default                                  : Да
Forced                                   : Нет

Аудио #2
Идентификатор                            : 3
Формат                                   : AC-3
Формат/Информация                        : Audio Coding 3
Расширение режима                        : CM (complete main)
Параметр Endianness формата              : Big
Идентификатор кодека                     : A_AC3
Продолжительность                        : 1 ч. 42 м.
Вид битрейта                             : Постоянный
Битрейт                                  : 384 Кбит/сек
Каналы                                   : 6 каналов
Расположение каналов                     : Front: L C R, Side: L R, LFE
Частота                                  : 48,0 КГц
Частота кадров                           : 31,250 кадров/сек (1536 spf)
Битовая глубина                          : 16 бит
Метод сжатия                             : С потерями
Задержка видео                           : -42 мс.
Размер потока                            : 280 Мбайт (7%)
Заголовок                                : [Original]
Язык                                     : English
Default                                  : Нет
Forced                                   : Нет

Текст #1
Идентификатор                            : 4
Формат                                   : UTF-8
Идентификатор кодека                     : S_TEXT/UTF8
Идентификатор кодека/Информация          : UTF-8 Plain Text
Продолжительность                        : 1 ч. 38 м.
Битрейт                                  : 39 бит/сек
Count of elements                        : 1087
Размер потока                            : 28,2 Кбайт (0%)
Заголовок                                : Full
Язык                                     : English
Default                                  : Нет
Forced                                   : Нет

Текст #2
Идентификатор                            : 5
Формат                                   : UTF-8
Идентификатор кодека                     : S_TEXT/UTF8
Идентификатор кодека/Информация          : UTF-8 Plain Text
Продолжительность                        : 1 ч. 38 м.
Битрейт                                  : 44 бит/сек
Count of elements                        : 1291
Размер потока                            : 32,0 Кбайт (0%)
Заголовок                                : SDH
Язык                                     : English
Default                                  : Нет
Forced                                   : Нет

Меню
00:00:00.000                             : en:1
00:12:10.980                             : en:2
00:22:38.273                             : en:3
00:32:23.107                             : en:4
00:44:05.100                             : en:5
00:56:26.007                             : en:6
01:08:06.123                             : en:7
01:20:28.782                             : en:8
01:29:46.548                             : en:9
01:38:10.510                             : en:10



Скриншоты:
[+] Всего файлов в раздаче - 1:
Level.16.2018.WEB-DL(1080p).OlLanDGroup.mkv3.66 GB

Показать еще раздачи по запросу уровень:
2019-03-17 U Уровень 16 / Level 16 (2018) WEB-DLRip-AVC от ExKinoRay | HDRezka Studio 746.92 MB ↑ 38 ↓ 5
2019-03-16 U Уровень 16 / Level 16 (2018) WEB-DLRip | HDRezka Studio 1.43 GB ↑ 83 ↓ 22
2019-03-13 U Уровень 16 / Level 16 (2018) WEB-DL 1080p | L 2К3.80 GB ↑ 180 ↓ 139
2018-05-14 U Коллектив авторов - Польский с нуля. Учебник для изучения польского языка (уровень А1) (2017) PDF 85.55 MB ↑ 174 ↓ 22
2018-04-18 U Красный уровень [S01] (2018) WEBRip 4.17 GB ↑ 181 ↓ 89
2018-04-14 U Красный уровень [S01] (2018) WEBRip 1080p 13.29 GB ↑ 213 ↓ 52
2018-01-01 U Андрей Журавлёв - Adobe Photoshop. Продвинутый уровень (2017) PCRec 720p 2К11.02 GB ↑ 704 ↓ 168

Отзывы
Зарегистрируйтесь чтобы добавить комментарий.
Обратная связь
Copyleft ©