↑↓Torrent.by
Поиск
Логин: Регистрация
Пароль: Восстановить пароль
Загрузка...

Реализация [01-10 из 24] (2018) WEBRip от GeneralFilm

Скачать realizaciya-01-10-iz-24-2018-webrip-ot-generalfilm.torrent
U Магнитная ссылка Размер: 5.44 GB Раздают: 136 Качают: 177 Добавлен: 2019-03-15 12:04:45
Реализация [01-10 из 24] (2018) WEBRip от GeneralFilm

Оригинальное название: Реализация
Год выпуска: 2018
Жанр:  Детектив
Выпущено: Россия, «Триикс Медиа»
Режиссер: Виктор Шкуратов, Сергей Щербин
В ролях: Дмитрий Паламарчук, Эдуард Флёров, Кирилл Рубцов, Сергей Юшкевич, Михаил Тарабукин, Максим Дахненко, Алексей Красноцветов, Ирина Ларионова, Игорь Ключников, Сергей Жарков, Елена Вожакина, Андрей Терентьев, Роман Агеев, Кирилл Полухин, Сергей Уманов, Вячеслав Аркунов, Алексей Штукин, Наталия Вязовская, Степан Пивкин, Виталий Салий, Юлия Кудояр, Игорь Грабузов, Антон Сычёв, Кирилл Кузнецов, Антон Чернов, Артём Цыпин, Владимир Петров (VIII), Станислав Ткаченко, Александр Клемантович, Олег Метелев, Юрий Ковалёв, Ирина Горкунова, Вячеслав Гумеров, Татьяна Ермилова (II), Дмитрий Могучев, Александр Петров (V), Михаил Сидаш, Геша Меньшиков, Александр Кратиров

О фильме: Опытного розыскника из Великого Новгорода с необычной фамилией Красавец после конфликта с влиятельным бизнесменом переводят на должность простого участкового в Центральный район Петербурга. Все, чего он теперь хочет — тихо и мирно дослужить до пенсии. Но едва ли не каждый день на новом месте Красавец оказывается в эпицентре преступных событий: то его втягивают в разборки между криминальным авторитетом и коллегами из УМВД, то он занимается поисками похищенного начальника главка, то ему приходится охотиться на неуловимого киллера…

Качество: WEBRip
Видео: XviD build 73, 720x400 (16:9), 25.000 fps, ~ 1400 Kbps (~ 0.195 bit/pixel)
Аудио: 48.0 kHz, AC3, 2/0 ch, 192 kbps
Продолжительность: 10 x ~ 00:49:00
Перевод: Не требуется
Cубтитры: нет

Релиз:


[+] MediaInfo

General
Complete name               : D:RazdachiRealizacija.2018.WEBRip.GeneralFilmRealizacija.e02.avi
Format                      : AVI
Format/Info                 : Audio Video Interleave
File size                   : 558 MiB
Duration                    : 48 min 22 s
Overall bit rate            : 1 611 kb/s
Writing application         : VirtualDubMod 1.5.10.3 | www.virtualdub-fr.org || (build 2550/release)
Writing library             : VirtualDubMod build 2550/release

Video
ID                          : 0
Format                      : MPEG-4 Visual
Format profile              : Advanced Simple@L5
Format settings             : BVOP1 / Custom Matrix
Format settings, BVOP       : 1
Format settings, QPel       : No
Format settings, GMC        : No warppoints
Format settings, Matrix     : Custom
Codec ID                    : XVID
Codec ID/Hint               : XviD
Duration                    : 48 min 22 s
Bit rate                    : 1 410 kb/s
Width                       : 720 pixels
Height                      : 400 pixels
Display aspect ratio        : 16:9
Frame rate                  : 25.000 FPS
Color space                 : YUV
Chroma subsampling          : 4:2:0
Bit depth                   : 8 bits
Scan type                   : Progressive
Compression mode            : Lossy
Bits/(Pixel*Frame)          : 0.196
Stream size                 : 488 MiB (87%)
Writing library             : XviD 73

Audio
ID                          : 1
Format                      : AC-3
Format/Info                 : Audio Coding 3
Commercial name             : Dolby Digital
Codec ID                    : 2000
Duration                    : 48 min 22 s
Bit rate mode               : Constant
Bit rate                    : 192 kb/s
Channel(s)                  : 2 channels
Channel layout              : L R
Sampling rate               : 48.0 kHz
Frame rate                  : 31.250 FPS (1536 SPF)
Bit depth                   : 16 bits
Compression mode            : Lossy
Stream size                 : 66.4 MiB (12%)
Alignment                   : Split accross interleaves
Interleave, duration        : 40  ms (1.00 video frame)
Interleave, preload duratio : 500  ms
Service kind                : Complete Main



Скриншоты:
[+] Всего файлов в раздаче - 10:
Realizacija.e01.avi557.53 MB
Realizacija.e02.avi557.54 MB
Realizacija.e03.avi556.69 MB
Realizacija.e04.avi555.79 MB
Realizacija.e05.avi557.25 MB
Realizacija.e06.avi557.22 MB
Realizacija.e07.avi557.28 MB
Realizacija.e08.avi557.61 MB
Realizacija.e09.avi557.38 MB
Realizacija.e10.avi557.49 MB

Показать еще раздачи по запросу реализация:
Вчера U Реализация [01х01-20 из 24] (2019) HDTVRip-AVC 15.04 GB ↑ 1 ↓ 4
Вчера U Реализация [01-16 из 24] (2018) WEBRip от Files-x 9.92 GB ↑ 58 ↓ 56
Вчера U Реализация [01-18 из 24] (2018) SATRip 10.55 GB ↑ 181 ↓ 346
2019-03-20 U Реализация [01-16 из 24] (2018) WEBRip от GeneralFilm 8.71 GB ↑ 71 ↓ 165
2019-03-20 U Реализация [01-16 из 24] (2018) SATRip 9.37 GB ↑ 171 ↓ 329
2019-03-19 U Реализация [01-14 из 24] (2018) WEBRip от GeneralFilm 7.62 GB ↑ 50 ↓ 203
2019-03-19 U Реализация [01-14 из 24] (2018) WEBRip от Files-x 8.66 GB ↑ 217 ↓ 160

Отзывы
Зарегистрируйтесь чтобы добавить комментарий.
Обратная связь
Copyleft ©