↑↓Torrent.by
Поиск
Логин: Регистрация
Пароль: Восстановить пароль
Загрузка...

Отдать жизнь за любовника / An Affair to Die For (2018) WEB-DL 1080p от ExKinoRay | HDRezka Studio

Скачать otdat-zhizn-za-lyubovnika-an-affair-to-die-for-2018-web-dl-1080p-ot-exkinoray-hdrezka-studio.torrent
U Магнитная ссылка Размер: 2.99 GB Раздают: 65 Качают: 42 Добавлен: 2019-03-15 12:05:31
Отдать жизнь за любовника / An Affair to Die For (2018) WEB-DL 1080p от ExKinoRay | HDRezka Studio

Название: Отдать жизнь за любовника
Оригинальное название: An Affair to Die For
Год выхода: 2018
Жанр: Триллер
Режиссер: Виктор Гарсия
В ролях: Клер Форлани, Джейк Эйбел, Титус Уэлливер, Нэйтан Купер, Мелина Мэтьюз

Описание:  
Тайное свидание в дорогой гостинице. Жена изменяет своему мужу. Муж изменяет своей жене. Казалось бы, ничего необычного. Но что, если всё пойдёт не так?.

Страна: Испания, Illogic Srl, Kobalt Entertainment, Martha Production
Продолжительность: 01:22:43
Перевод: Профессиональный (многоголосый, закадровый) | HDRezka Studio
Субтитры: English Full

БЕЗ КАКОЙ-ЛИБО РЕКЛАМЫ!

Формат: MKV
Качество: WEB-DL 1080p
Видео: MPEG-4 AVC, 1914x796 (2.40:1), 23.976 fps, 4492 Kbps, 0.123 bit/pixel
Аудио 1: 48 kHz, AC3, 2.0, 192 Kbps | MVO | RUS |
Аудио 2: 48 kHz, AC3, 5.1, 384 Kbps | Оригинал |  ENG |

Релиз:

Автор релиза:


[+] MI
General
Unique ID                                : 216131022154500194700685069847433126653 (0xA299521C87BF775C92ECC117754522FD)
Complete name                            : D:An.Affair.to.Die.For.2019.MVO.1080p.WEB-DL.ExKinoRay.mkv
Format                                   : Matroska
Format version                           : Version 2
File size                                : 2.99 GiB
Duration                                 : 1 h 22 min
Overall bit rate                         : 5 170 kb/s
Movie name                               : An Affair to Die For 2019 from ExKinoRay
Encoded date                             : UTC 2019-03-15 03:39:06
Writing application                      : mkvmerge v5.6.0 ('Kenya Kane') built on May 27 2012 16:44:04
Writing library                          : libebml v1.2.3 + libmatroska v1.3.0

Video
ID                                       : 1
Format                                   : AVC
Format/Info                              : Advanced Video Codec
Format profile                           : High@L4
Format settings, CABAC                   : Yes
Format settings, ReFrames                : 5 frames
Codec ID                                 : V_MPEG4/ISO/AVC
Duration                                 : 1 h 22 min
Bit rate                                 : 4 492 kb/s
Width                                    : 1 914 pixels
Height                                   : 796 pixels
Display aspect ratio                     : 2.40:1
Frame rate mode                          : Constant
Frame rate                               : 23.976 (24000/1001) FPS
Color space                              : YUV
Chroma subsampling                       : 4:2:0
Bit depth                                : 8 bits
Scan type                                : Progressive
Bits/(Pixel*Frame)                       : 0.123
Stream size                              : 2.60 GiB (87%)
Title                                    : An.Affair.to.Die.For.2019.FGT
Language                                 : English
Default                                  : Yes
Forced                                   : No
Color range                              : Limited
Color primaries                          : BT.709
Transfer characteristics                 : BT.709
Matrix coefficients                      : BT.709

Audio #1
ID                                       : 2
Format                                   : AC-3
Format/Info                              : Audio Coding 3
Mode extension                           : CM (complete main)
Format settings, Endianness              : Big
Codec ID                                 : A_AC3
Duration                                 : 1 h 22 min
Bit rate mode                            : Constant
Bit rate                                 : 192 kb/s
Channel(s)                               : 2 channels
Channel positions                        : Front: L R
Sampling rate                            : 48.0 kHz
Frame rate                               : 31.250 FPS (1536 spf)
Compression mode                         : Lossy
Delay relative to video                  : -42 ms
Stream size                              : 114 MiB (4%)
Title                                    : MVO (HDRezka Studio)
Language                                 : Russian
Default                                  : No
Forced                                   : No

Audio #2
ID                                       : 3
Format                                   : AC-3
Format/Info                              : Audio Coding 3
Mode extension                           : CM (complete main)
Format settings, Endianness              : Big
Codec ID                                 : A_AC3
Duration                                 : 1 h 22 min
Bit rate mode                            : Constant
Bit rate                                 : 384 kb/s
Channel(s)                               : 6 channels
Channel positions                        : Front: L C R, Side: L R, LFE
Sampling rate                            : 48.0 kHz
Frame rate                               : 31.250 FPS (1536 spf)
Compression mode                         : Lossy
Delay relative to video                  : -42 ms
Stream size                              : 227 MiB (7%)
Title                                    : Original
Language                                 : English
Default                                  : No
Forced                                   : No

Text
ID                                       : 4
Format                                   : UTF-8
Codec ID                                 : S_TEXT/UTF8
Codec ID/Info                            : UTF-8 Plain Text
Language                                 : English
Default                                  : No
Forced                                   : No

Menu
00:00:00.000                             : en:1
00:09:29.000                             : en:2
00:17:44.000                             : en:3
00:21:55.000                             : en:4
00:28:36.000                             : en:5
00:35:12.000                             : en:6
00:42:34.000                             : en:7
00:49:13.000                             : en:8
00:56:43.000                             : en:9
01:02:39.000                             : en:10
01:10:26.000                             : en:11
01:19:04.000                             : en:12




Скриншоты:
[+] Всего файлов в раздаче - 1:
An.Affair.to.Die.For.2019.MVO.1080p.WEB-DL.ExKinoRay.mkv2.99 GB

Показать еще раздачи по запросу отдать:
2019-03-15 U Отдать жизнь за любовника / An Affair to Die For (2018) WEB-DLRip от ExKinoRay | HDRezka Studio 1.33 GB ↑ 69 ↓ 33
2019-02-13 U Отдать жизнь за любовника / An Affair to Die For (2018) WEBRip | L2 1.06 GB ↑ 29 ↓ 19
2019-02-13 U Отдать жизнь за любовника / An Affair to Die For (2018) WEBRip 720p | L2 1.72 GB ↑ 60 ↓ 15
2014-09-15 U Отдать концы (2013) HDTVRip 1.45 GB ↑ 57 ↓ 47
2013-12-31 U Отдать концы (2013) DVDRip | Лицензия 1К1.46 GB ↑ 450 ↓ 330
2013-11-22 U Отдать концы (2013) WEB-DL 1.36 GB ↑ 47 ↓ 9
2013-11-22 U Отдать концы (2013) WEBRip 1.36 GB ↑ 116 ↓ 167

Отзывы
Зарегистрируйтесь чтобы добавить комментарий.
Обратная связь
Copyleft ©