↑↓Torrent.by
Поиск
Логин: Регистрация
Пароль: Восстановить пароль
Загрузка...

Завод (2018) WEB-DLRip от OlLanDGroup | iTunes

Скачать zavod-2018-web-dlrip-ot-ollandgroup-itunes.torrent
U Магнитная ссылка Размер: 745.45 MB Раздают: 70 Качают: 7 Добавлен: 2019-03-15 12:05:44
Завод (2018) WEB-DLRip от OlLanDGroup | iTunes

Информация о фильме
Название: Завод
Год выпуска: 2018
Жанр: Боевик, драма, триллер, криминал
Режиссер: Юрий Быков
В ролях: Денис Шведов, Владислав Абашин, Андрей Смоляков, Александр Бухаров, Дмитрий Куличков, Иван Янковский, Юрий Тарасов, Пётр Баранчеев, Александр Воробьёв, Алексей Комашко, Кирилл Полухин, Александр Логинов, Сергей Сосновский, Борис Невзоров, Олег Алмазов, Александр Баширов, Алексей Фаддеев, Илья Соколовский

О фильме:
Закрывают градообразующий завод. Владелец предприятия — олигарх Калугин — банкротит его, чтобы заключить выгодную сделку с иностранцами. Несколько тысяч рабочих остаются на улице без средств к существованию. Все смиренно принимают эту участь, и только пятеро отчаянных мужиков решают отстоять свое и взять хозяина в заложники, чтоб требовать с него деньги. Вожак работяг — Седой, воевавший и раненый в горячей точке, — вместе с товарищами вступает в смертельную схватку с опричником олигарха Туманом и его группой спецов за жизнь Калугина. Исход боя решит, кто прав — богатые или бедные.

Страна: Россия, Армения, Франция
Студия: Kinovista, Forever Films Media, Coda, Sharm Holding
Продолжительность: 01:50:37
Язык: Русский | iTunes

Файл
Формат: AVI
Качество: WEB-DLRip
Видео: 688x288 (2.39:1), 24 fps, XviD build 73 ~804 kbps avg, 0.17 bit/pixel
Звук: 48 kHz, MPEG Layer 3, 2 ch, ~128.00 kbps avg
Субтитры: Нет

Релиз:


[+] MediaInfo:
General
Complete name                  : D:Мои рипыZavod.2018.WEB-DLRip.OlLanDGroup.avi
Format                         : AVI
Format/Info                    : Audio Video Interleave
File size                      : 745 MiB
Duration                       : 1 h 50 min
Overall bit rate               : 942 kb/s
Writing application            : VirtualDubMod 1.5.10.3 | www.virtualdub-fr.org || (build 2550/release)
Writing library                : VirtualDubMod build 2550/release

Video
ID                             : 0
Format                         : MPEG-4 Visual
Format profile                 : Advanced Simple@L5
Format settings                : BVOP1 / Custom Matrix
Format settings, BVOP          : 1
Format settings, QPel          : No
Format settings, GMC           : No warppoints
Format settings, Matrix        : Custom
Codec ID                       : XVID
Codec ID/Hint                  : XviD
Duration                       : 1 h 50 min
Bit rate                       : 805 kb/s
Width                          : 688 pixels
Height                         : 288 pixels
Display aspect ratio           : 2.40:1
Frame rate                     : 24.000 FPS
Color space                    : YUV
Chroma subsampling             : 4:2:0
Bit depth                      : 8 bits
Scan type                      : Progressive
Compression mode               : Lossy
Bits/(Pixel*Frame)             : 0.169
Stream size                    : 637 MiB (85%)
Writing library                : XviD 73

Audio
ID                             : 1
Format                         : MPEG Audio
Format version                 : Version 1
Format profile                 : Layer 3
Codec ID                       : 55
Codec ID/Hint                  : MP3
Duration                       : 1 h 50 min
Bit rate mode                  : Constant
Bit rate                       : 128 kb/s
Channel(s)                     : 2 channels
Sampling rate                  : 48.0 kHz
Frame rate                     : 41.667 FPS (1152 SPF)
Compression mode               : Lossy
Stream size                    : 101 MiB (14%)
Alignment                      : Aligned on interleaves
Interleave, duration           : 42  ms (1.00 video frame)
Interleave, preload duration   : 504  ms
Writing library                : LAME3.99r
Encoding settings              : -m s -V 4 -q 2 -lowpass 17 -b 128



Скриншоты:
[+] Всего файлов в раздаче - 1:
Zavod.2018.WEB-DLRip.OlLanDGroup.avi745.45 MB

Показать еще раздачи по запросу завод:
2019-03-17 U Завод (2018) WEB-DLRip-AVC от OlLanDGroup | iTunes 1.68 GB ↑ 183 ↓ 42
2019-03-15 U Завод (2018) WEB-DLRip от ExKinoRay | iTunes 1.46 GB ↑ 56 ↓ 19
2019-03-14 U Завод (2018) WEB-DL 720p | iTunes 2.28 GB ↑ 110 ↓ 32
2019-03-14 U Завод (2018) WEB-DLRip от MegaPeer | iTunes 1.46 GB ↑ 118 ↓ 54
2019-03-14 U Завод (2018) WEB-DL 1080p | iTunes 4.25 GB ↑ 91 ↓ 43
2019-03-03 U Завод (2018) WEBRip от ExKinoRay 1.46 GB ↑ 116 ↓ 40
2019-03-02 U Завод (2018) WEBRip от Scarabey 745.22 MB ↑ 64 ↓ 22

Отзывы
Зарегистрируйтесь чтобы добавить комментарий.
Обратная связь
Copyleft ©