↑↓Torrent.by
Поиск
Логин: Регистрация
Пароль: Восстановить пароль
Загрузка...

Т-34 (2018) WEB-DLRip-AVC от OlLanDGroup | iTunes

Скачать t-34-2018-web-dlrip-avc-ot-ollandgroup-itunes.torrent
U Магнитная ссылка Размер: 2.11 GB Раздают: 98 Качают: 11 Добавлен: 2019-03-17 04:37:52
Т-34 (2018) WEB-DLRip-AVC от OlLanDGroup | iTunes

Т-34
«История великой победы»

Год выпуска: 2018
Страна: Россия
Производство: Марс Медиа, Амедиа Продакшн
Жанр:  Драма, военный, приключения

Режиссёр: Алексей Сидоров
В ролях: Александр Петров, Виктор Добронравов, Ирина Старшенбаум, Винценц Кифер, Петр Скворцов, Семён Трескунов, Артём Быстров, Антон Богданов, Василий Уриевский, Василий Буткевич

Перевод: Оригинал | [iTunes]
Субтитры: Английские
Реклама: Отсутствует

Описание: Во времена величайших испытаний человечества, когда от каждого действия зависят жизни любимых, два заклятых врага начнут свое противостояние. Оказавшись в плену, вчерашний курсант Ивушкин планирует дерзкий побег. Он собирает свой экипаж и на легендарной «тридцатьчетверке» бросает вызов немецким танковым асам во главе с Ягером. Ради своей любви и Родины он готов идти до конца.

Качество: WEB-DLRip-AVC | iTunes Version |
Продолжительность: 02:19:06

Формат: MKV
Видео кодек: MPEG-4 AVC
Аудио кодек: AC3
Видео: 1024x428 (2.40:1), 24,000 fps, x264 ~1 726 kbps avg, 0.170 bit/pixel
Аудио #1: 48 kHz, AC3 Dolby Digital, 3/2 (L,C,R,l,r) + LFE ch, ~384.00 kbps avg | RUS (iTunes)

Дата премьеры (мир): 6 января 2019
Дата премьеры (РФ): 1 января 2019, «Централ Партнершип»
Цифровой релиз:

Релиз:


[+] MediaInfo

Общее
Уникальный идентификатор                 : 235216090383234922812888997182019400343 (0xB0F4F89FB75C95E68C185B839806F297)
Полное имя                               : F:OlLanDGroupT.34.2018.WEB-DLRip(AVC).OllanDGroup.mkv
Формат                                   : Matroska
Версия формата                           : Version 4 / Version 2
Размер файла                             : 2,11 Гбайт
Продолжительность                        : 2 ч. 19 м.
Общий поток                              : 2174 Кбит/сек
Название фильма                          : T-34 2018   #TorpedoUK#
Дата кодирования                         : UTC 2019-03-16 11:46:09
Программа кодирования                    : mkvmerge v29.0.0 ('Like It Or Not') 64-bit
Библиотека кодирования                   : libebml v1.3.6 + libmatroska v1.4.9

Видео
Идентификатор                            : 1
Формат                                   : AVC
Формат/Информация                        : Advanced Video Codec
Профиль формата                          : High@L4.1
Параметр CABAC формата                   : Да
Параметр ReFrames формата                : 10 кадров
Идентификатор кодека                     : V_MPEG4/ISO/AVC
Продолжительность                        : 2 ч. 19 м.
Битрейт                                  : 1788 Кбит/сек
Ширина                                   : 1024 пикселя
Высота                                   : 428 пикселей
Соотношение сторон                       : 2,40:1
Режим частоты кадров                     : Постоянный
Частота кадров                           : 24,000 кадра/сек
Цветовое пространство                    : YUV
Субдискретизация насыщенности            : 4:2:0
Битовая глубина                          : 8 бит
Тип развёртки                            : Прогрессивная
Бит/(Пиксели*Кадры)                      : 0.170
Размер потока                            : 1,74 Гбайт (82%)
Библиотека кодирования                   : x264 core 146 r2538 121396c
Настройки программы                      : cabac=1 / ref=10 / deblock=1:-3:-3 / analyse=0x3:0x113 / me=umh / subme=10 / psy=1 / psy_rd=0.99:0.04 / mixed_ref=1 / me_range=48 / chroma_me=1 / trellis=2 / 8x8dct=1 / cqm=0 / deadzone=21,11 / fast_pskip=1 / chroma_qp_offset=-3 / threads=6 / lookahead_threads=1 / sliced_threads=0 / nr=0 / decimate=1 / interlaced=0 / bluray_compat=0 / constrained_intra=0 / bframes=11 / b_pyramid=2 / b_adapt=2 / b_bias=0 / direct=3 / weightb=1 / open_gop=0 / weightp=2 / keyint=240 / keyint_min=24 / scenecut=40 / intra_refresh=0 / rc_lookahead=40 / rc=2pass / mbtree=0 / bitrate=1788 / ratetol=1.0 / qcomp=0.60 / qpmin=0 / qpmax=69 / qpstep=4 / cplxblur=20.0 / qblur=0.5 / vbv_maxrate=50000 / vbv_bufsize=62500 / nal_hrd=none / filler=0 / ip_ratio=1.40 / pb_ratio=1.30 / aq=1:1.00
Язык                                     : English
Default                                  : Да
Forced                                   : Нет

Аудио
Идентификатор                            : 2
Формат                                   : AC-3
Формат/Информация                        : Audio Coding 3
Расширение режима                        : CM (complete main)
Параметр Endianness формата              : Big
Идентификатор кодека                     : A_AC3
Продолжительность                        : 2 ч. 19 м.
Вид битрейта                             : Постоянный
Битрейт                                  : 384 Кбит/сек
Каналы                                   : 6 каналов
Расположение каналов                     : Front: L C R, Side: L R, LFE
Частота                                  : 48,0 КГц
Частота кадров                           : 31,250 кадров/сек (1536 spf)
Битовая глубина                          : 16 бит
Метод сжатия                             : С потерями
Размер потока                            : 382 Мбайт (18%)
Заголовок                                : iTunes
Язык                                     : Russian
Default                                  : Да
Forced                                   : Нет

Текст
Идентификатор                            : 3
Формат                                   : UTF-8
Идентификатор кодека                     : S_TEXT/UTF8
Идентификатор кодека/Информация          : UTF-8 Plain Text
Продолжительность                        : 2 ч. 11 м.
Битрейт                                  : 30 бит/сек
Count of elements                        : 970
Размер потока                            : 29,3 Кбайт (0%)
Заголовок                                : iTunes
Язык                                     : English
Default                                  : Нет
Forced                                   : Нет

Меню
00:00:00.000                             : en:Глава 1
00:05:52.916                             : en:Глава 2
00:12:22.832                             : en:Глава 3
00:19:03.873                             : en:Глава 4
00:25:40.873                             : en:Глава 5
00:34:49.039                             : en:Глава 6
00:41:16.455                             : en:Глава 7
00:48:25.371                             : en:Глава 8
00:56:20.412                             : en:Глава 9
01:03:14.287                             : en:Глава 10
01:12:51.702                             : en:Глава 11
01:19:06.743                             : en:Глава 12
01:25:44.618                             : en:Глава 13
01:32:00.409                             : en:Глава 14
01:37:42.909                             : en:Глава 15
01:44:55.075                             : en:Глава 16
01:50:39.532                             : en:Глава 17
01:57:06.032                             : en:Глава 18
02:03:23.864                             : en:Глава 19



Скриншоты:
[+] Всего файлов в раздаче - 1:
T.34.2018.WEB-DLRip(AVC).OllanDGroup.mkv2.11 GB

Показать еще раздачи по запросу dlrip:
Сегодня U Сутенёр / Pimped (2018) WEB-DLRip от toxics | HDRezka Studio 741.48 MB ↑ 83 ↓ 37
Вчера U Дар (2018) WEB-DLRip-AVC от ExKinoRay | iTunes 1.52 GB ↑ 74 ↓ 31
Вчера U Питомец Юрского периода / The Adventures of Jurassic Pet (2019) WEB-DLRip-AVC от ExKinoRay | Локализованная версия | iTunes 1К1.51 GB ↑ 43 ↓ 25
Вчера U Алита: Боевой ангел / Alita: Battle Angel (2019) WEB-DLRip от Scarabey | Лицензия | Open Matte 1.45 GB ↑ 34 ↓ 13
Вчера U Балканский рубеж (2019) WEB-DLRip 1080p от Талямбы | 60 fps | iTunes 13.02 GB ↑ 39 ↓ 35
Вчера U Игрища престолов / Purge of Kingdoms: The Unauthorized Game of Thrones Parody (2019) WEB-DLRip | iTunes 1.46 GB ↑ 152 ↓ 104
2019-07-19 U Питомец Юрского периода / The Adventures of Jurassic Pet (2019) WEB-DLRip | Локализованная версия | iTunes 1.46 GB ↑ 101 ↓ 53

Отзывы
Зарегистрируйтесь чтобы добавить комментарий.
Обратная связь
Copyleft ©