↑↓Torrent.by
Поиск
Логин: Регистрация
Пароль: Восстановить пароль
Загрузка...

Вечерний квартал [114] (2019) WEBRip от GeneralFilm

Скачать vecherniy-kvartal-114-2019-webrip-ot-generalfilm.torrent
U Магнитная ссылка Размер: 1.37 GB Раздают: 380 Качают: 106 Добавлен: 2019-03-17 18:35:44
Вечерний квартал [114] (2019) WEBRip от GeneralFilm

Оригинальное название: Вечерний квартал
Год выпуска: 2019
Жанр:  Юмористическое шоу, концерт, сатира
Выпущено: Украина, Студия 95 квартал
Режиссер: Студия 95 квартал
В ролях: Владимир Зеленский, Юрий Крапов, Денис Манжосов, Елена Кравец, Евгений Кошевой, Сергей Казанин, Александр Пикалов, Юрий Корявченков, Аркадий Лапухин

О фильме:
Однажды веселые ребята из "95-го квартала" решили отметить свой переезд из родного Кривого Рога в Киев, а заодно 10-летие команды новым шоу. Коллектив подобрался душевный, "с огоньком", гости - сплошь знаменитые, а столичная публика - щедрая на аплодисменты. Так родилась самая смешная и популярная передача на отечественном телевидении - "Вечерний квартал". Идея шоу проста: в городе N есть некий модный квартал, в котором тусуются девять смешных жителей. Остальные просто приходят к ним в гости. Правда, гости не совсем обычные: среди них встречаются и богатые, и знаменитые, политики, и дизайнеры, и поп-звезды. Главный критерий - наличие здорового чувства юмора. Без него - никак, так как гостей здесь встречают не хлебом-солью, а розыгрышами и подколками, а те в свою очередь участвуют в скетчах и исполняют музыкальные или танцевальные номера.

Качество: WEBRip
Видео: XviD build 73, 720x400 (16:9), 25.000 fps, 2232 Kbps (0.310 bit/pixel)
Аудио: 48.0 kHz, AC3, 2/0 ch, 192 kbps
Продолжительность: 01:20:22
Перевод: Не требуется
Cубтитры: нет

Релиз:
[+] Содержание
Как Зеленского в президенты провожали
Владимир Зеленский: Такого мир ещё НЕ ВИДЕЛ!
Life Is Beautiful - Музыкальный номер
Проверка в Укроборонпроме - Не прошло и полгода. Политическое Дискавери
MARUV в гостях у Нового Вечернего Квартала 2019
Восемь титек на сцене - Песня MARUV глазами зрителей
Власть пошла на встречу и легализовала КОНОПЛЮ - Валерий Жидков
Ссыкун, брехло и Марионетка Коломойского - Грязные Новости о Зеленском на канале Кривой
Жена, которая работает футбольным судьей - СЕМЕЙНЫЕ ПРИКОЛЫ
Как Порошенко себе то самое увеличивал
Страна, которой будут гордиться наши дети - Финальная песня



[+] MediaInfo

General
Complete name               : D:RazdachiVechernij.Kvartal.114.XviD.WEBRip.GeneralFilm.avi
Format                      : AVI
Format/Info                 : Audio Video Interleave
File size                   : 1.37 GiB
Duration                    : 1 h 20 min
Overall bit rate            : 2 434 kb/s
Writing application         : VirtualDubMod 1.5.10.3 | www.virtualdub-fr.org || (build 2550/release)
Writing library             : VirtualDubMod build 2550/release

Video
ID                          : 0
Format                      : MPEG-4 Visual
Format profile              : Advanced Simple@L5
Format settings             : BVOP1 / Custom Matrix
Format settings, BVOP       : 1
Format settings, QPel       : No
Format settings, GMC        : No warppoints
Format settings, Matrix     : Custom
Codec ID                    : XVID
Codec ID/Hint               : XviD
Duration                    : 1 h 20 min
Bit rate                    : 2 232 kb/s
Width                       : 720 pixels
Height                      : 400 pixels
Display aspect ratio        : 16:9
Frame rate                  : 25.000 FPS
Color space                 : YUV
Chroma subsampling          : 4:2:0
Bit depth                   : 8 bits
Scan type                   : Progressive
Compression mode            : Lossy
Bits/(Pixel*Frame)          : 0.310
Stream size                 : 1.25 GiB (92%)
Writing library             : XviD 73

Audio
ID                          : 1
Format                      : AC-3
Format/Info                 : Audio Coding 3
Commercial name             : Dolby Digital
Codec ID                    : 2000
Duration                    : 1 h 20 min
Bit rate mode               : Constant
Bit rate                    : 192 kb/s
Channel(s)                  : 2 channels
Channel layout              : L R
Sampling rate               : 48.0 kHz
Frame rate                  : 31.250 FPS (1536 SPF)
Bit depth                   : 16 bits
Compression mode            : Lossy
Stream size                 : 110 MiB (8%)
Alignment                   : Split accross interleaves
Interleave, duration        : 40  ms (1.00 video frame)
Interleave, preload duratio : 500  ms
Service kind                : Complete Main



Скриншоты:
[+] Всего файлов в раздаче - 1:
Vechernij.Kvartal.114.XviD.WEBRip.GeneralFilm.avi1.37 GB

Показать еще раздачи по запросу вечерний:
2019-05-26 U Вечерний квартал [116] (2019) WEBRip от GeneralFilm 1К1.37 GB ↑ 148 ↓ 67
2019-03-24 U Вечерний квартал [115] (2019) WEBRip от GeneralFilm 1.37 GB ↑ 167 ↓ 84
2019-03-23 U Вечерний квартал [114] (2019) WEBRip от GeneralFilm 1.37 GB ↑ 76 ↓ 14
2019-01-02 U Вечерний квартал [113] (2018) WEBRip от GeneralFilm 2.17 GB ↑ 816 ↓ 182
2018-11-04 U Вечерний квартал [112] (2018) WEBRip от GeneralFilm 1.09 GB ↑ 29 ↓ 44
2018-10-29 U Вечерний квартал [111] (2018) WEBRip от GeneralFilm 1.09 GB ↑ 163 ↓ 64
2018-05-20 U Вечерний квартал [110] (2018) WEBRip от GeneralFilm 744.51 MB ↑ 179 ↓ 81

Отзывы
Зарегистрируйтесь чтобы добавить комментарий.
Обратная связь
Copyleft ©