↑↓Torrent.by
Поиск
Логин: Регистрация
Пароль: Восстановить пароль
Загрузка...

Счастливые дни (1991) WEB-DL 1080p | iTunes

Скачать schastlivye-dni-1991-web-dl-1080p-itunes.torrent
U Магнитная ссылка Размер: 3.37 GB Раздают: 34 Качают: 4 Добавлен: 2019-03-18 04:36:00
Счастливые дни (1991) WEB-DL 1080p | iTunes

Название: Счастливые дни
Год выпуска: 1991
Жанр:  Драма
Режиссер: Алексей Балабанов
В ролях: Виктор Сухоруков, Анжелика Неволина, Евгений Меркурьев, Генрих Тейх, Николай Лавров, Ричард Богуцкий, Георгий Богданов, Артем Исаков, Татьяна Калистратова, Сергей Кашеваров, Андрей Мухтаров, Любовь Тищенко, Милена Тонтегоде, Аркадий Шароградский, Марина Юрасова, Алексей Оленников

Описание: По безлюдным улицам Петербурга одиноко бредет Он - человек без имени, прошлого, друзей. Редкие люди, с которыми пересекается герой, называют его по-разному: Сергеем Сергеевичем, Петром, Борей. Всем что-то нужно от него, а он всего лишь хочет найти себе место, где можно просто жить. Но эта цель оказывается недостижимой.

Страна: СССР
Студия: Ленфильм
Продолжительность: 01:21:39
Перевод: Не требуется

Файл
Качество: WEB-DL 1080p
Контейнер: MKV
Видео: MPEG-4 AVC, 1920x1080, 25.000 fps, 5155 Kbps
Аудио 1: Русский: AC3, 16 bits, 48 KHz, 5.1 ch, 384 Kbps | iTunes
Аудио 2: Русский: AC3, 16 bits, 48 KHz, 2.0 ch, 256 Kbps | DVD5
Субтитры: Английские

Релиз от: george$t


[+] MediaInfo
General
Unique ID                   : 217748528037705194998117428250868065345 (0xA3D0D74F038D1ABCAD5E8CD269AE2441)
Complete name               : Счастливые дни.1991.mkv
Format                      : Matroska
Format version              : Version 2
File size                   : 3.37 GiB
Duration                    : 1 h 21 min
Overall bit rate            : 5 913 kb/s
Encoded date                : UTC 2019-03-15 20:25:30
Writing application         : mkvmerge v7.8.0 ('River Man') 32bit built on Mar 27 2015 16:18:02
Writing library             : libebml v1.3.1 + libmatroska v1.4.2

Video
ID                          : 1
Format                      : AVC
Format/Info                 : Advanced Video Codec
Format profile              : High@L4
Format settings             : CABAC / 4 Ref Frames
Format settings, CABAC      : Yes
Format settings, ReFrames   : 4 frames
Codec ID                    : V_MPEG4/ISO/AVC
Duration                    : 1 h 21 min
Bit rate                    : 5 155 kb/s
Width                       : 1 920 pixels
Height                      : 1 080 pixels
Display aspect ratio        : 16:9
Frame rate mode             : Constant
Frame rate                  : 25.000 FPS
Color space                 : YUV
Chroma subsampling          : 4:2:0
Bit depth                   : 8 bits
Scan type                   : Progressive
Bits/(Pixel*Frame)          : 0.099
Stream size                 : 2.94 GiB (87%)
Title                       : Счастливые дни 1991
Language                    : Russian
Default                     : Yes
Forced                      : No
Color range                 : Limited
Color primaries             : BT.709
Transfer characteristics    : BT.709
Matrix coefficients         : BT.709

Audio #1
ID                          : 2
Format                      : AC-3
Format/Info                 : Audio Coding 3
Codec ID                    : A_AC3
Duration                    : 1 h 21 min
Bit rate mode               : Constant
Bit rate                    : 384 kb/s
Channel(s)                  : 6 channels
Channel positions           : Front: L C R, Side: L R, LFE
Sampling rate               : 48.0 kHz
Frame rate                  : 31.250 FPS (1536 SPF)
Bit depth                   : 16 bits
Compression mode            : Lossy
Stream size                 : 224 MiB (6%)
Title                       : AC-3; 16 bits 48 Khz; 5.1ch 384 Kbps; CBR | ( iTunes)
Language                    : Russian
Service kind                : Complete Main
Default                     : Yes
Forced                      : No

Audio #2
ID                          : 3
Format                      : AC-3
Format/Info                 : Audio Coding 3
Codec ID                    : A_AC3
Duration                    : 1 h 21 min
Bit rate mode               : Constant
Bit rate                    : 256 kb/s
Channel(s)                  : 2 channels
Channel positions           : Front: L R
Sampling rate               : 48.0 kHz
Frame rate                  : 31.250 FPS (1536 SPF)
Bit depth                   : 16 bits
Compression mode            : Lossy
Stream size                 : 150 MiB (4%)
Title                       : AC-3; 16 bits 48 Khz; 2.0ch 256 Kbps; CBR | (DVD5)
Language                    : Russian
Service kind                : Complete Main
Default                     : No
Forced                      : No

Text
ID                          : 4
Format                      : UTF-8
Codec ID                    : S_TEXT/UTF8
Codec ID/Info               : UTF-8 Plain Text
Title                       : Субтитры английские (DVD5)
Language                    : English
Default                     : No
Forced                      : No



Скриншоты:
[+] Всего файлов в раздаче - 1:
Счастливые дни.1991.mkv3.37 GB

Похожие раздачи по запросу - счастливые:
2018-03-03 U Балаган Лимитед - Счастливые (2018) MP3 89.85 MB ↑ 168 ↓ 62
2014-03-14 U Счастливые годы / Anni felici / Those happy years (2013) BDRip-AVC | L1 2.05 GB ↑ 27 ↓ 33
2014-03-13 U Счастливые годы / Those happy years / Anni felici (2013) BDRip 1.79 GB ↑ 62 ↓ 38
2014-03-12 U Счастливые годы / Those happy years / Anni felici (2013) BDRip 1080p от CINEMANIA | L1 8.72 GB ↑ 12 ↓ 39
2014-03-12 U Счастливые годы / Those happy years / Anni felici (2013) BDRip 720p от CINEMANIA | L1 4.58 GB ↑ 45 ↓ 37

Отзывы
Зарегистрируйтесь чтобы добавить комментарий.
Обратная связь
Copyleft ©