↑↓Torrent.by
Поиск
Логин: Регистрация
Пароль: Восстановить пароль
Загрузка...

Шутки в сторону 2: Миссия в Майами / Le flic de Belleville (2018) BDRip 1080р | D

Скачать shutki-v-storonu-2-missiya-mayami-le-flic-de-belleville-2018-bdrip-1080r-d.torrent
U Магнитная ссылка Размер: 7.71 GB Раздают: 288 Качают: 145 Добавлен: 2019-03-18 17:57:43
Шутки в сторону 2: Миссия в Майами / Le flic de Belleville (2018) BDRip 1080р | D

Название: Шутки в сторону 2: Миссия в Майами
Оригинальное название: Le flic de Belleville
Год выхода: 2018
Жанр: Комедия
Режиссер: Рашид Бушареб
В ролях: Омар Си, Луис Гусман, Биюна, Дьем Нгуйен, Эрик Эбони, Исака Савадого, Маймуна Гуйе, Жюли Ферье, Франк Гастамбид, Себастьен Вандерберг

О фильме:
Безбашенный коп-раздолбай приезжает в рай на Земле — Майами, где знакомится с еще более чокнутым местным копом. Эти двое нарушат все возможные законы и устроят настоящий беспредел, чтобы раскрыть глобальную преступную сеть, опутавшую с виду спокойный и респектабельный Майами.


Страна: Франция
Студия: Tessalit Productions, Davis-Films, Metropolitan Filmexport
Продолжительность: 01:51:17
Перевод: Дублированный

Файл
Кодек: MPEG4
Качество: BDRip 1080р
Видео: 8218 Кбит/с, 1920x808, 23.976 кадр/с
Звук: Русский (AC3, 2 ch, 192 Кбит/с), французский (DTS, 6 ch, 1509 Кбит/с)
Субтитры: Отсутствуют
[+] MediaInfo

Общее
Уникальный идентификатор                 : 102621545750718867604703372640250253508 (0x4D3430D79E122FEB40EDA2EDF4A850C4)
Формат                                   : Matroska
Версия формата                           : Version 4
Размер файла                             : 7,71 Гбайт
Продолжительность                        : 1 ч. 51 м.
Общий поток                              : 9919 Кбит/сек
Название фильма                          : Le.Flic.De.Belleville.2018.BDRip 1080p.funtden
Дата кодирования                         : UTC 2019-03-16 17:58:48
Программа кодирования                    : mkvmerge v29.0.0 ('Like It Or Not') 64-bit
Библиотека кодирования                   : libebml v1.3.6 + libmatroska v1.4.9

Видео
Идентификатор                            : 1
Формат                                   : AVC
Формат/Информация                        : Advanced Video Codec
Профиль формата                          : High@L4.1
Настройки формата                        : CABAC / 5 Ref Frames
Идентификатор кодека                     : V_MPEG4/ISO/AVC
Продолжительность                        : 1 ч. 51 м.
Битрейт                                  : 8218 Кбит/сек
Ширина                                   : 1920 пикселей
Высота                                   : 808 пикселей
Соотношение сторон                       : 2,40:1
Режим частоты кадров                     : Постоянный
Частота кадров                           : 23,976 (23976/1000) кадра/сек
Субдискретизация насыщенности            : 4:2:0
Битовая глубина                          : 8 бит
Тип развёртки                            : Прогрессивная
Бит/(Пиксели*Кадры)                      : 0.221
Размер потока                            : 6,39 Гбайт (83%)
Заголовок                                : Le.Flic.De.Belleville.2018.BDRip 1080p.funtden
Библиотека кодирования                   : x264 core 155 r2901 7d0ff22

Аудио #1
Идентификатор                            : 2
Формат                                   : AC-3
Формат/Информация                        : Audio Coding 3
Идентификатор кодека                     : A_AC3
Продолжительность                        : 1 ч. 51 м.
Вид битрейта                             : Постоянный
Битрейт                                  : 192 Кбит/сек
Каналы                                   : 2 канала
Частота                                  : 48,0 КГц
Частота кадров                           : 31,250 кадров/сек (1536 SPF)
Битовая глубина                          : 16 бит
Метод сжатия                             : С потерями
Размер потока                            : 153 Мбайт (2%)
Язык                                     : Russian

Аудио #2
Идентификатор                            : 3
Формат                                   : DTS
Идентификатор кодека                     : A_DTS
Продолжительность                        : 1 ч. 51 м.
Вид битрейта                             : Постоянный
Битрейт                                  : 1509 Кбит/сек
Каналы                                   : 6 каналов
Частота                                  : 48,0 КГц
Частота кадров                           : 93,750 кадра/сек (512 SPF)
Битовая глубина                          : 24 бит
Метод сжатия                             : С потерями
Размер потока                            : 1,17 Гбайт (15%)
Язык                                     : French




Скриншоты:
[+] Всего файлов в раздаче - 1:
Le.Flic.De.Belleville.2018.BDRip 1080p.funtden.mkv7.71 GB

Похожие раздачи по запросу - шутки:
2019-04-06 U Шутки в сторону 2: Миссия в Майами / Le flic de Belleville (2018) BDRip | iTunes 2.18 GB ↑ 308 ↓ 78
2019-04-05 U Шутки в сторону 2: Миссия в Майами / Le flic de Belleville (2018) BDRip от MegaPeer | iTunes 1.41 GB ↑ 455 ↓ 124
2013-10-22 U Шутки в сторону / De l'autre côté du périph (2012) HDRip-AVC | D | Лицензия 744.21 MB ↑ 185 ↓ 6

Отзывы
Зарегистрируйтесь чтобы добавить комментарий.
Обратная связь
Copyleft ©