↑↓Torrent.by
Поиск
Логин: Регистрация
Пароль: Восстановить пароль
Загрузка...

BEEF: Русский хип-хоп (2019) WEB-DL 1080p от Tapochek | iTunes

Скачать beef-russkiy-hip-hop-2019-web-dl-1080p-ot-tapochek-itunes.torrent
U Магнитная ссылка Размер: 3.10 GB Раздают: 192 Качают: 19 Добавлен: 2019-03-19 06:24:22
BEEF: Русский хип-хоп (2019) WEB-DL 1080p от Tapochek | iTunes

Название: BEEF: Русский хип-хоп
Год выхода: 2019
Жанр: документальный, музыка, биография
Режиссер: Рома Жиган
В ролях: Баста, Александр Тимарцев, Адиль Жалелов, Мирон Фёдоров, Джа Калиб, ST, Вахтанг Каландадзе, Кирилл Толмацкий, L’One, Смоки Мо

О фильме:
Весь путь русского хип-хопа от андеграунда до огромных стадионов, показанный глазами самых ярких и знаковых представителей культуры. Фильм заглядывает за кулисы русского рэпа, обнажая все конфликты и столкновения, показывает истинный облик всего жанра и отвечает на вопрос — как ему удалось захватить современное поколение и стать музыкой номер один.

Страна: Россия
Продолжительность: 01:30:27
Перевод: Не требуется [iTunes]

Релиз от: Tapochek

Файл
Кодек: AVC
Качество: WEB-DL 1080p
Видео: AVC, 4426 Кбит/сек, 1920x806 (2,40:1), 25,000 кадров/сек
Звук: AC3, 384 Кбит/сек, 6 каналов, 48,0 КГц
Субтитры: нет

Семпл
[+] Mediainfo
Общее
Уникальный идентификатор                 : 247514924128255625856967993462031160564 (0xBA35A3F1A80AA877A1AB64E36B4494F4)
Полное имя                               : C:DownloadsBEEF.Russkiy.Hip-Hop.2019.WEB-DL.1080p.mkv
Формат                                   : Matroska
Версия формата                           : Version 2
Размер файла                             : 3,10 Гбайт
Продолжительность                        : 1 ч. 30 м.
Общий поток                              : 4908 Кбит/сек
Дата кодирования                         : UTC 2019-03-18 10:54:55
Программа кодирования                    : mkvmerge v10.0.0 ('To Drown In You') 32bit
Библиотека кодирования                   : libebml v1.3.4 + libmatroska v1.4.5

Видео
Идентификатор                            : 1
Формат                                   : AVC
Формат/Информация                        : Advanced Video Codec
Профиль формата                          : High@L4
Параметр CABAC формата                   : Да
Параметр ReFrames формата                : 5 кадров
Идентификатор кодека                     : V_MPEG4/ISO/AVC
Продолжительность                        : 1 ч. 30 м.
Битрейт                                  : 4426 Кбит/сек
Ширина                                   : 1920 пикселей
Высота                                   : 806 пикселей
Соотношение сторон                       : 2,40:1
Режим частоты кадров                     : Постоянный
Частота кадров                           : 25,000 кадров/сек
Цветовое пространство                    : YUV
Субдискретизация насыщенности            : 4:2:0
Битовая глубина                          : 8 бит
Тип развёртки                            : Прогрессивная
Бит/(Пиксели*Кадры)                      : 0.114
Размер потока                            : 2,80 Гбайт (90%)
Default                                  : Да
Forced                                   : Нет
Цветовой диапазон                        : Limited
Основные цвета                           : BT.709
Характеристики трансфера                 : BT.709
Коэффициенты матрицы                     : BT.709

Аудио
Идентификатор                            : 2
Формат                                   : AC-3
Формат/Информация                        : Audio Coding 3
Расширение режима                        : CM (complete main)
Параметр Endianness формата              : Big
Идентификатор кодека                     : A_AC3
Продолжительность                        : 1 ч. 30 м.
Вид битрейта                             : Постоянный
Битрейт                                  : 384 Кбит/сек
Каналы                                   : 6 каналов
Расположение каналов                     : Front: L C R, Side: L R, LFE
Частота                                  : 48,0 КГц
Битовая глубина                          : 16 бит
Метод сжатия                             : С потерями
Размер потока                            : 248 Мбайт (8%)
Default                                  : Да
Forced                                   : Нет



Скриншоты:
[+] Всего файлов в раздаче - 1:
BEEF.Russkiy.Hip-Hop.2019.WEB-DL.1080p.mkv3.10 GB

Похожие раздачи по запросу - beef:
2018-03-24 U Операция «Тушенка» / L'Opération Corned Beef (1991) DVDRip-AVC от ExKinoRay | P 2.17 GB ↑ 313 ↓ 60

Отзывы
Зарегистрируйтесь чтобы добавить комментарий.
Обратная связь
Copyleft ©