↑↓Torrent.by
Поиск
Логин: Регистрация
Пароль: Восстановить пароль
Загрузка...

Человек-паук: Через вселенные / Spider-Man: Into the Spider-Verse (2018) BDRip 1080p от qqss44 & MegaPeer | iTunes

Скачать chelovek-pauk-cherez-vselennye-spider-man-into-the-verse-2018-bdrip-1080p-ot-qqss44-megapeer-itunes.torrent
U Магнитная ссылка Размер: 7.57 GB Раздают: 91 Качают: 17 Добавлен: 2019-03-19 06:26:36
Человек-паук: Через вселенные / Spider-Man: Into the Spider-Verse (2018) BDRip 1080p от qqss44 & MegaPeer | iTunes

Анонсы 1080p от qqss44

Информация о фильме
Название: Человек-паук: Через вселенные
Оригинальное название: Spider-Man: Into the Spider-Verse
Год выпуска: 2018
Жанр: Мультфильм, фантастика, комедия, приключения, семейный, полнометражный
Режиссер: Боб Персичетти, Питер Рэмзи, Родни Ротман
В ролях: Шамеик Мур, Джейк Джонсон, Хейли Стайнфелд, Махершала Али, Брайан Тайри Генри, Лили Томлин, Лорен Велес, Зои Кравиц, Джон Мулэйни, Кимико Гленн, Николас Кейдж, Кэтрин Хан, Лив Шрайбер, Крис Пайн, Натали Моралес, Эдвин Хэбакон, Оскар Айзек, Грета Ли, Стэн Ли, Йорма Такконе

О фильме:
Мы всё знаем о Питере Паркере. Он спас город, влюбился, а потом спасал город снова и снова… Но все это — в нашем измерении. А что если в результате работы гигантского коллайдера откроется окно из одного измерения в другое? Найдется ли в нем свой Человек-паук? И как он будет выглядеть? Приготовьтесь к тому, что в разных вселенных могут быть разные Люди-пауки и однажды им придется собраться вместе для борьбы с почти непобедимым врагом.

Страна: США
Студия: Avi Arad Productions, Columbia Pictures Corporation, Lord Miller
Продолжительность: 01:56:50
Перевод: Дублированный | iTunes

Файл
Формат: MKV, BDRip 1080p
Видео: MPEG-4 AVC, 8888 Кбит/с, 1920x804
Aудио#1: [RUS] AC3 | 48 KHz | 5.1 (Front: L С R Side: L R) + LFE | ~384 kbps
Субтитры: русские форсированные  + полные
Релиз от:


[+] МИ

Общее
Уникальный идентификатор                 : 183216687160900320122722781776288160805 (0x89D6401AF729F7BFAA8EB52303701C25)
Полное имя                               : H:Spider-Man.Into.the.Spider-Verse.(2018).BDRip-1080p.MegaPeer.(qqss44).mkv
Формат                                   : Matroska
Версия формата                           : Version 2
Размер файла                             : 7,57 Гбайт
Продолжительность                        : 1 ч. 56 м.
Общий поток                              : 9275 Кбит/сек
Название фильма                          : Spider-Man.Into.the.Spider-Verse.(2018).BDRip-1080p.MegaPeer.(qqss44)
Дата кодирования                         : UTC 2019-03-18 13:54:24
Программа кодирования                    : mkvmerge v7.8.0 ('River Man') 32bit built on Apr  3 2015 12:11:22
Библиотека кодирования                   : libebml v1.3.1 + libmatroska v1.4.2

Видео
Идентификатор                            : 1
Формат                                   : AVC
Формат/Информация                        : Advanced Video Codec
Профиль формата                          : High@L4.1
Параметр CABAC формата                   : Да
Параметр ReFrames формата                : 5 кадров
Идентификатор кодека                     : V_MPEG4/ISO/AVC
Продолжительность                        : 1 ч. 56 м.
Битрейт                                  : 8888 Кбит/сек
Ширина                                   : 1920 пикселей
Высота                                   : 804 пикселя
Соотношение сторон                       : 2,40:1
Режим частоты кадров                     : Постоянный
Частота кадров                           : 23,976 (24000/1001) кадра/сек
Цветовое пространство                    : YUV
Субдискретизация насыщенности            : 4:2:0
Битовая глубина                          : 8 бит
Тип развёртки                            : Прогрессивная
Бит/(Пиксели*Кадры)                      : 0.240
Размер потока                            : 7,11 Гбайт (94%)
Библиотека кодирования                   : x264 core 152 r2851 ba24899
Настройки программы                      : cabac=1 / ref=5 / deblock=1:0:0 / analyse=0x3:0x113 / me=umh / subme=11 / psy=1 / psy_rd=1.00:0.00 / mixed_ref=1 / me_range=32 / chroma_me=1 / trellis=2 / 8x8dct=1 / cqm=0 / deadzone=21,11 / fast_pskip=0 / chroma_qp_offset=-2 / threads=12 / lookahead_threads=2 / sliced_threads=0 / nr=0 / decimate=0 / interlaced=0 / bluray_compat=0 / constrained_intra=0 / bframes=8 / b_pyramid=2 / b_adapt=2 / b_bias=0 / direct=3 / weightb=1 / open_gop=0 / weightp=2 / keyint=250 / keyint_min=23 / scenecut=40 / intra_refresh=0 / rc_lookahead=40 / rc=2pass / mbtree=0 / bitrate=8888 / ratetol=1.0 / qcomp=0.70 / qpmin=0 / qpmax=69 / qpstep=4 / cplxblur=20.0 / qblur=0.5 / vbv_maxrate=50000 / vbv_bufsize=62500 / nal_hrd=none / filler=0 / ip_ratio=1.40 / pb_ratio=1.30 / aq=3:1.00
Язык                                     : English
Default                                  : Да
Forced                                   : Нет

Аудио
Идентификатор                            : 2
Формат                                   : AC-3
Формат/Информация                        : Audio Coding 3
Расширение режима                        : CM (complete main)
Параметр Endianness формата              : Big
Идентификатор кодека                     : A_AC3
Продолжительность                        : 1 ч. 56 м.
Вид битрейта                             : Постоянный
Битрейт                                  : 384 Кбит/сек
Каналы                                   : 6 каналов
Расположение каналов                     : Front: L C R, Side: L R, LFE
Частота                                  : 48,0 КГц
Частота кадров                           : 31,250 кадров/сек (1536 spf)
Метод сжатия                             : С потерями
Размер потока                            : 321 Мбайт (4%)
Язык                                     : Russian
Default                                  : Да
Forced                                   : Нет

Текст #1
Идентификатор                            : 3
Формат                                   : UTF-8
Идентификатор кодека                     : S_TEXT/UTF8
Идентификатор кодека/Информация          : UTF-8 Plain Text
Заголовок                                : FORCED
Язык                                     : Russian
Default                                  : Да
Forced                                   : Нет

Текст #2
Идентификатор                            : 4
Формат                                   : UTF-8
Идентификатор кодека                     : S_TEXT/UTF8
Идентификатор кодека/Информация          : UTF-8 Plain Text
Заголовок                                : FULL
Язык                                     : Russian
Default                                  : Нет
Forced                                   : Нет

Меню
00:00:00.000                             : en:Chapter 01
00:09:03.793                             : en:Chapter 02
00:14:04.719                             : en:Chapter 03
00:18:51.714                             : en:Chapter 04
00:29:39.027                             : en:Chapter 05
00:34:14.636                             : en:Chapter 06
00:40:34.432                             : en:Chapter 07
00:44:22.827                             : en:Chapter 08
00:48:06.884                             : en:Chapter 09
00:58:45.855                             : en:Chapter 10
01:06:04.460                             : en:Chapter 11
01:09:55.483                             : en:Chapter 12
01:20:00.003                             : en:Chapter 13
01:24:54.923                             : en:Chapter 14
01:33:33.399                             : en:Chapter 15
01:55:26.920                             : en:Chapter 16




Скриншоты:
[+] Всего файлов в раздаче - 1:
Spider-Man.Into.the.Spider-Verse.(2018).BDRip-1080p.MegaPeer.(qqss44).mkv7.57 GB

Показать еще раздачи по запросу человек:
2019-08-05 U Честный человек / L'homme fidele (2018) WEB-DL 1080p | Line 2.78 GB ↑ 99 ↓ 50
2019-06-18 U Человек-муравей и Оса / Ant-Man and the Wasp (2018) BDRip-HEVC 720p | D 2.01 GB ↑ 52 ↓ 17
2019-04-14 U Человек-паук: Через вселенные / Spider-Man: Into the Spider-Verse (2018) BDRip 1080p от селезень | Локализованная версия | Лицензия 9.11 GB ↑ 194 ↓ 30
2019-03-13 U Человек-паук: Через вселенные / Spider-Man: Into the Spider-Verse (2018) BDRemux 1080p от селезень | iTunes 21.36 GB ↑ 189 ↓ 46
2019-03-12 U Человек-паук: Через вселенные / Spider-Man: Into the Spider-Verse (2018) HDRip от OlLanDGroup | iTunes 746.88 MB ↑ 123 ↓ 23
2019-03-11 U Человек-паук: Через вселенные / Spider-Man: Into the Spider-Verse (2018) UHD BDRemux 2160p от селезень | 4K | HDR | iTunes 42.36 GB ↑ 137 ↓ 298
2019-03-11 U Человек-паук: Через вселенные / Spider-Man: Into the Spider-Verse (2018) HDRip от MegaPeer | iTunes 2.18 GB ↑ 335 ↓ 150

Отзывы
Зарегистрируйтесь чтобы добавить комментарий.
Обратная связь
Copyleft ©