↑↓Torrent.by
Поиск
Логин: Регистрация
Пароль: Восстановить пароль
Загрузка...

Русский Бес (2018) WEB-DLRip-AVC от ExKinoRay | iTunes

Скачать russkiy-bes-2018-web-dlrip-avc-ot-exkinoray-itunes.torrent
U Магнитная ссылка Размер: 743.90 MB Раздают: 97 Качают: 17 Добавлен: 2019-03-20 16:03:35
Русский Бес (2018) WEB-DLRip-AVC от ExKinoRay | iTunes

Название: Русский Бес
Год выхода: 2018
Жанр:  Триллер, драма, комедия
Режиссер: Григорий Константинопольский
В ролях: Иван Макаревич, Григорий Константинопольский, Любовь Аксёнова, Виталий Кищенко, Виктория Исакова, Юлия Ауг, Тимофей Трибунцев, Александр Стриженов, Ксения Раппопорт, Максим Виторган, Михаил Ефремов

О фильме :
Святослав Иванов влюблен в Асю и решает на ней жениться. По образованию он художник-дизайнер, а отец Аси — управляющий крупного российского банка. Святослав решает начать собственный бизнес — открыть ресторан, чтобы создать для Аси те условия жизни, к которым она привыкла. На пути молодого героя неожиданно встает ряд серьезных препятствий, угрожающих его жизни… Он обнаруживает, что у него есть тайный недоброжелатель, который хочет погубить и его бизнес, и его самого. Молодой человек прибегает к самым крайним мерам, постепенно распутывая цепочку тайного заговора… И под конец истории Святославу все-таки удается найти ответ, кто же был его врагом…

Страна: Россия
Студия: Артлайт, Инвада Фильм
Продолжительность: 01:40:06
Язык: Русский

Файл
Формат: MKV
Качество: WEB-DLRip-AVC
Видео: MPEG-4 AVC, 800x336, - 964 Кбит/с
Аудио:  AAC-HE, 2 ch, - 76 Кбит/с
Субтитры: Нет


[+] MI
Общее
Уникальный идентификатор : 244742553123087283099812113062622617381 (0xB81FB3800B634158B2ABA1035C9F5F25)
Полное имя : D:MOVIESRusskij.Bes.2018.WEB-DLRip-AVC.ExKinoRay.mkv
Формат : Matroska
Версия формата : Version 4 / Version 2
Размер файла : 744 Мбайт
Продолжительность : 1 ч. 40 м.
Общий поток : 1039 Кбит/сек
Дата кодирования : UTC 2019-03-19 19:11:11
Программа кодирования : mkvmerge v15.0.0 ('Duel with the Devil') 64-bit
Библиотека кодирования : libebml v1.3.5 + libmatroska v1.4.5

Видео
Идентификатор : 1
Формат : AVC
Формат/Информация : Advanced Video Codec
Профиль формата : High@L4.1
Параметр CABAC формата : Да
Параметр RefFrames формата : 12 кадров
Идентификатор кодека : V_MPEG4/ISO/AVC
Продолжительность : 1 ч. 40 м.
Битрейт : 964 Кбит/сек
Ширина : 800 пикселей
Высота : 336 пикселей
Соотношение сторон : 2,40:1
Режим частоты кадров : Постоянный
Частота кадров : 25,000 кадров/сек
Цветовое пространство : YUV
Субдискретизация насыщенности : 4:2:0
Битовая глубина : 8 бит
Тип развёртки : Прогрессивная
Бит/(Пиксели*Кадры) : 0.143
Размер потока : 688 Мбайт (93%)
Библиотека кодирования : x264 core 152 r2851kMod ba24899
Настройки программы : cabac=1 / ref=12 / deblock=1:-3:-3 / analyse=0x3:0x133 / me=umh / subme=11 / psy=1 / fade_compensate=0.00 / psy_rd=1.00:0.12 / mixed_ref=1 / me_range=32 / chroma_me=1 / trellis=2 / 8x8dct=1 / cqm=0 / deadzone=21,11 / fast_pskip=0 / chroma_qp_offset=-3 / threads=6 / lookahead_threads=1 / sliced_threads=0 / nr=0 / decimate=0 / interlaced=0 / bluray_compat=0 / constrained_intra=0 / bframes=12 / b_pyramid=2 / b_adapt=2 / b_bias=0 / direct=3 / weightb=1 / open_gop=0 / weightp=2 / keyint=250 / keyint_min=24 / scenecut=40 / intra_refresh=0 / rc_lookahead=40 / rc=2pass / mbtree=1 / bitrate=964 / ratetol=1.0 / qcomp=0.60 / qpmin=0 / qpmax=69 / qpstep=4 / cplxblur=20.0 / qblur=0.5 / ip_ratio=1.40 / aq=3:1.00
Default : Да
Forced : Нет

Аудио
Идентификатор : 2
Формат : AAC
Формат/Информация : Advanced Audio Codec
Профиль формата : HE-AAC / LC
Идентификатор кодека : A_AAC
Продолжительность : 1 ч. 40 м.
Битрейт : 76,0 Кбит/сек
Каналы : 2 канала
Расположение каналов : Front: L R
Частота : 48,0 КГц / 24,0 КГц
Частота кадров : 23,438 кадра/сек (1024 SPF)
Метод сжатия : С потерями
Задержка видео : 31 мс.
Размер потока : 54,4 Мбайт (7%)
Язык : Russian
Default : Да
Forced : Нет



Скриншоты:
[+] Всего файлов в раздаче - 1:
Russkij.Bes.2018.WEB-DLRip-AVC.ExKinoRay.mkv743.90 MB

Показать еще раздачи по запросу русский:
2019-04-13 U Сборник - 100 хитов в дорогу: Русский выпуск (2019) MP3 837.37 MB ↑ 246 ↓ 92
2019-03-19 U BEEF: Русский хип-хоп (2019) WEB-DLRip от Tapochek | iTunes 1.46 GB ↑ 78 ↓ 18
2019-03-19 U BEEF: Русский хип-хоп (2019) WEB-DL 1080p от Tapochek | iTunes 3.10 GB ↑ 130 ↓ 18
2019-02-28 U Сборник - Русский Шансон 84 (2019) MP3 от Виталия 72 584.48 MB ↑ 75 ↓ 29
2019-02-26 U Русский Бес (2018) WEB-DLRip от GeneralFilm | iTunes 746.37 MB ↑ 259 ↓ 63
2019-02-26 U Русский Бес (2018) WEB-DLRip | iTunes 1.46 GB ↑ 522 ↓ 136
2019-02-25 U Русский Бес (2018) WEB-DL 1080p 3.84 GB ↑ 257 ↓ 207

Отзывы
Зарегистрируйтесь чтобы добавить комментарий.
Обратная связь
Copyleft ©