↑↓Torrent.by
Поиск
Логин: Регистрация
Пароль: Восстановить пароль
Загрузка...

Тобол (2019) WEB-DL 1080p | iTunes

Скачать tobol-2019-web-dl-1080p-itunes.torrent
U Магнитная ссылка Размер: 3.71 GB Раздают: 1645 Качают: 530 Добавлен: 2019-03-21 06:28:19
Тобол (2019) WEB-DL 1080p | iTunes

Название: Тобол
Год выхода: 2019
Жанр: История, драма
Страна: Россия
Перевод: Не требуется
Продолжительность: 01:48:01
Режиссер: Игорь Зайцев
В ролях: Илья Маланин, Дмитрий Назаров, Дмитрий Дюжев, Евгений Дятлов, Агата Муцениеце, Александр Лазарев мл., Андрей Бурковский, Юлия Макарова, Павел Табаков, Еркебулан Даиров и др.

О фильме: Молодой офицер новой гвардии Петра I Иван Демарин по заданию царя отправляется в глубину Сибири — в пограничный Тобольск. Здесь Иван встречает свою первую любовь и вместе со своим полком оказывается втянутым в заговор местных князей, охотящихся за золотом Яркенда. Его крепость окружена полчищами диких джунгар и помощи ждать неоткуда…

Файл
Качество: WEB-DL 1080p
Видео: MPEG-4 AVC, 1920x806, 4538 kbps, 24,000 fps
Звук: русский, AC3, 5.1 ch, 48 kHz, 384 kbps | iTunes
Субтитры: нет

Релиз:


[+] MI
General
Уникальный идентификатор                 : 246862485528495311830553258835979327762 (0xB9B7FC3CC92FAE8EA268E6C51CFCD912)
Полное имя                               : E:TorrentTobolWEBDL1080p.mkv
Формат                                   : Matroska
Версия формата                           : Version 4 / Version 2
Размер файла                             : 3.71 GiB
Продолжительность                        : 1 h 48 min
Общий поток                              : 4 923 kb/s
Дата кодирования                         : UTC 2019-03-20 18:31:14
Программа кодирования                    : mkvmerge v9.5.0 ('Quiet Fire') 64bit
Библиотека кодирования                   : libebml v1.3.4 + libmatroska v1.4.5

Video
Идентификатор                            : 1
Формат                                   : AVC
Формат/Информация                        : Advanced Video Codec
Профиль формата                          : High@L4
Настройки формата                        : CABAC / 5 Ref Frames
Параметр CABAC формата                   : Yes
Параметр RefFrames формата               : 5 frames
Идентификатор кодека                     : V_MPEG4/ISO/AVC
Продолжительность                        : 1 h 48 min
Битрейт                                  : 4 538 kb/s
Ширина                                   : 1 920 pixels
Высота                                   : 806 pixels
Соотношение сторон                       : 2.40:1
Режим частоты кадров                     : Constant
Частота кадров                           : 24.000 FPS
Цветовое пространство                    : YUV
Субдискретизация насыщенности            : 4:2:0
Битовая глубина                          : 8 bits
Тип развёртки                            : Progressive
Бит/(Пиксели*Кадры)                      : 0.122
Размер потока                            : 3.42 GiB (92%)
Язык                                     : English
Default                                  : Yes
Forced                                   : No
Цветовой диапазон                        : Limited
Основные цвета                           : BT.709
Характеристики трансфера                 : BT.709
Коэффициенты матрицы                     : BT.709

Audio
Идентификатор                            : 2
Формат                                   : AC-3
Формат/Информация                        : Audio Coding 3
Идентификатор кодека                     : A_AC3
Продолжительность                        : 1 h 48 min
Вид битрейта                             : Constant
Битрейт                                  : 384 kb/s
Каналы                                   : 6 channels
Расположение каналов                     : Front: L C R, Side: L R, LFE
Частота                                  : 48.0 kHz
Частота кадров                           : 31.250 FPS (1536 SPF)
Битовая глубина                          : 16 bits
Метод сжатия                             : Lossy
Размер потока                            : 297 MiB (8%)
Язык                                     : Russian
Default                                  : Yes
Forced                                   : No

Menu
00:00:00.000                             : en:Глава 1
00:09:41.666                             : en:Глава 2
00:21:39.666                             : en:Глава 3
00:30:55.124                             : en:Глава 4
00:39:23.915                             : en:Глава 5
00:49:00.331                             : en:Глава 6
01:01:22.539                             : en:Глава 7
01:10:35.664                             : en:Глава 8
01:17:05.080                             : en:Глава 9
01:30:25.038                             : en:Глава 10
01:36:12.704                             : en:Глава 11
01:39:48.995                             : en:Глава 12




Скриншоты:
[+] Всего файлов в раздаче - 1:
TobolWEBDL1080p.mkv3.71 GB

Похожие раздачи по запросу - тобол:
2019-09-21 U Тобол (2019) HDRip от Scarabey | Лицензия 1.45 GB ↑ 85 ↓ 11
2019-09-19 U Тобол (2019) BDRip 720p от ExKinoRay | Лицензия 4.75 GB ↑ 32 ↓ 8
2019-06-30 U Тобол (2019) BDRip 1080p от OlLanDGroup | Лицензия 9.01 GB ↑ 230 ↓ 121
2019-06-30 U Тобол (2019) BDRip от MegaPeer | Лицензия 1.46 GB ↑ 157 ↓ 33
2019-03-24 U Тобол (2019) WEB-DLRip от GeneralFilm | iTunes 1К745.73 MB ↑ 268 ↓ 41
2019-03-23 U Тобол (2019) WEB-DLRip от Scarabey | iTunes 1.45 GB ↑ 299 ↓ 54

Отзывы
Зарегистрируйтесь чтобы добавить комментарий.
Обратная связь
Copyleft ©